<?xml version="1.0" standalone="no"?>
<!DOCTYPE svg PUBLIC "-//W3C//DTD SVG 1.1//EN" "http://www.w3.org/Graphics/SVG/1.1/DTD/svg11.dtd" >
<svg xmlns="http://www.w3.org/2000/svg" xmlns:xlink="http://www.w3.org/1999/xlink" version="1.1">
<metadata>
Created by FontForge 20200427 at Thu Feb 13 21:15:09 2014
 By www
Copyright (c) 2013 by Jeremy Dooley. All rights reserved.
</metadata>
<defs>
<font id="TorcaoW01-NmlRegular" horiz-adv-x="497" >
  <font-face 
    font-family="TorcaoW01-NmlRegular"
    font-weight="500"
    font-stretch="normal"
    units-per-em="1000"
    panose-1="2 0 5 6 2 0 0 2 0 4"
    ascent="740"
    descent="-260"
    x-height="500"
    cap-height="705"
    bbox="-50.25 -244 1307 960"
    underline-thickness="50"
    underline-position="-150"
    unicode-range="U+0002-2122"
  />
<missing-glyph horiz-adv-x="206" 
 />
    <glyph glyph-name=".notdef" horiz-adv-x="206" 
 />
    <glyph glyph-name=".null" horiz-adv-x="0" 
 />
    <glyph glyph-name="uni000D" unicode="&#xd;" horiz-adv-x="206" 
 />
    <glyph glyph-name="uni0002" horiz-adv-x="0" 
 />
    <glyph glyph-name="uni0009" unicode="&#x9;" horiz-adv-x="206" 
 />
    <glyph glyph-name="uni000A" unicode="&#xa;" horiz-adv-x="0" 
 />
    <glyph glyph-name="space" unicode=" " horiz-adv-x="206" 
 />
    <glyph glyph-name="exclam" unicode="!" horiz-adv-x="241" 
d="M96 76q8 4 16.5 4.5t15.5 0.5q24 0 34 -9.5t10 -35.5q0 -11 -2.5 -23t-6.5 -19q-7 -2 -15 -2.5t-16 -0.5q-24 0 -34 9.5t-10 35.5q0 11 2 23t6 17zM78 759q7 2 17 3.5t17 1.5q23 0 34 -12t11 -44l-9 -458h-55z" />
    <glyph glyph-name="quotedbl" unicode="&#x22;" horiz-adv-x="259" 
d="M52 775q6 2 15 3.5t14 1.5q14 0 18 -7.5t2 -25.5l-8 -142h-30zM155 775q6 2 15 3.5t14 1.5q14 0 18 -7.5t2 -25.5l-8 -142h-30z" />
    <glyph glyph-name="numbersign" unicode="#" horiz-adv-x="786" 
d="M145 195h-79q-14 0 -19.5 6t-5.5 23q0 8 2.5 17t7.5 15h124l95 189h-91q-14 0 -19.5 6t-5.5 23q0 19 10 32h137l97 193q10 3 18 4.5t20 1.5q15 0 21.5 -7t-0.5 -20l-86 -172h188l97 193q10 3 18 4.5t20 1.5q15 0 21.5 -7t-0.5 -20l-86 -172h90q17 0 24.5 -6t7.5 -26
q0 -11 -3 -17t-8 -12h-142l-94 -189h101q18 0 25.5 -6t7.5 -26q0 -11 -3 -17t-8 -12h-153l-97 -195h-72l98 195h-187l-97 -195h-72zM528 445h-187l-95 -189h187z" />
    <glyph glyph-name="dollar" unicode="$" horiz-adv-x="517" 
d="M75 374q-6 27 -9 58.5t-3 64.5q0 29 2 59t5.5 56.5t9 48t11.5 33.5q42 8 80.5 11t76.5 4v89q17 5 32 5q20 0 28.5 -9.5t8.5 -33.5v-52q38 -2 72.5 -5t65.5 -6q0 -34 -3 -62q-36 4 -74 7.5t-83 3.5q-41 0 -78 -2.5t-68 -7.5q-6 -20 -10 -49.5t-5 -61.5q0 -25 1 -50t5 -48
l310 -74q6 -29 9.5 -66t3.5 -76q0 -8 -0.5 -15.5t-0.5 -15.5q-2 -49 -7.5 -93.5t-14.5 -73.5q-33 -10 -66 -14t-65 -6q1 -3 1 -11v-69h-69v78q-57 1 -103 5.5t-88 16.5q-1 8 -1 16.5v16.5v15.5t1 14.5q79 -22 181 -22q42 0 81 3t70 14q5 26 7.5 55.5t2.5 59.5q0 29 -2 57
t-5 57z" />
    <glyph glyph-name="percent" unicode="%" horiz-adv-x="915" 
d="M720 0q-38 0 -66.5 10t-47.5 32t-29 57.5t-10 86.5q1 59 13.5 104t35.5 67q27 10 55.5 12.5t56.5 2.5q38 0 66.5 -10t47.5 -32t29 -57.5t10 -86.5q-1 -59 -14 -104t-35 -67q-27 -10 -55.5 -12.5t-56.5 -2.5zM188 333q-38 0 -66.5 10t-47.5 32t-29 57.5t-10 86.5
q1 59 13.5 104t35.5 67q27 10 55 12.5t56 2.5q77 0 115 -41.5t39 -144.5q-1 -59 -14 -104t-36 -67q-27 -10 -55 -12.5t-56 -2.5zM123 643q-15 -18 -22.5 -53.5t-7.5 -70.5q0 -72 22.5 -103.5t79.5 -31.5q15 0 33.5 1.5t32.5 9.5q14 18 21.5 53.5t7.5 70.5q0 72 -22.5 103.5
t-79.5 31.5q-15 0 -33.5 -1.5t-31.5 -9.5zM655 310q-15 -18 -22 -53.5t-7 -70.5q0 -72 22.5 -103.5t78.5 -31.5q16 0 34.5 1.5t31.5 9.5q15 18 22 53.5t7 70.5q0 72 -22.5 103.5t-78.5 31.5q-16 0 -34.5 -1.5t-31.5 -9.5zM643 699q9 3 17.5 4.5t19.5 1.5q17 0 19.5 -11.5
t-8.5 -28.5l-433 -665h-69z" />
    <glyph glyph-name="ampersand" unicode="&#x26;" horiz-adv-x="627" 
d="M584 341q-23 1 -32.5 2.5t-17 2t-18 1t-34.5 0.5v-344q-44 -5 -91.5 -7t-96.5 -2q-48 0 -93.5 5.5t-81 25t-57.5 56.5t-22 99q0 78 39.5 122t116.5 67q-30 7 -48 19.5t-28 30.5t-13.5 42t-3.5 53q0 63 12.5 108.5t33.5 71.5q33 10 66.5 13t67.5 3q49 0 84 -4t64 -14
q3 -17 3.5 -32t-0.5 -31q-32 10 -65 14.5t-71 4.5q-28 0 -54 -2.5t-46 -8.5q-13 -23 -21 -51t-8 -71q0 -27 5 -47t17.5 -33t34.5 -19.5t56 -6.5h316q-3 -33 -14 -68zM295 53q38 0 64.5 1.5t52.5 5.5v287h-128q-49 -8 -82.5 -23.5t-54.5 -36.5t-30.5 -46.5t-9.5 -55.5
q0 -41 14 -66.5t38.5 -40t59 -20t76.5 -5.5z" />
    <glyph glyph-name="quotesingle" unicode="'" horiz-adv-x="156" 
d="M52 775q6 2 15 3.5t14 1.5q14 0 18 -7.5t2 -25.5l-8 -142h-30z" />
    <glyph glyph-name="parenleft" unicode="(" horiz-adv-x="239" 
d="M201 720q-87 -191 -87 -394q0 -103 22 -208t65 -213h-70q-42 106 -62 208t-20 202q0 115 24.5 225.5t69.5 217.5q20 5 36 5q18 0 25.5 -11t-3.5 -32z" />
    <glyph glyph-name="parenright" unicode=")" horiz-adv-x="237" 
d="M120 711q34 -96 50 -192t16 -193q0 -109 -19.5 -214.5t-56.5 -206.5h-70q41 106 60.5 211t19.5 210q0 110 -21 217.5t-62 214.5q8 2 18 3.5t18 1.5q14 0 25 -9t22 -43z" />
    <glyph glyph-name="asterisk" unicode="*" horiz-adv-x="428" 
d="M213 579l-97 -111q-12 7 -22 15.5t-10 19.5q0 13 17 24l83 72l-136 47q1 7 3.5 16.5t4.5 16.5q6 14 15 14t25 -9l99 -51l-10 142q17 5 29 5t19 -7.5t5 -27.5l-6 -112l99 51q16 9 25 9t15 -14q3 -7 5 -16.5t3 -16.5l-136 -47l83 -72q17 -11 17 -23q0 -10 -9.5 -19
t-23.5 -17z" />
    <glyph glyph-name="plus" unicode="+" horiz-adv-x="444" 
d="M194 68q-5 8 -6 17.5t-1 17.5v143h-121q-14 0 -19.5 6.5t-5.5 23.5q0 19 10 32h136v126q0 31 6.5 42t24.5 11q7 0 14.5 -2t12.5 -4q4 -11 5 -20t1 -20v-133h119q18 0 25.5 -6.5t7.5 -26.5q0 -10 -2.5 -16.5t-7.5 -12.5h-142v-141q0 -44 -31 -44q-8 0 -14 2t-12 5z" />
    <glyph glyph-name="comma" unicode="," horiz-adv-x="211" 
d="M78 64q8 3 16 3.5t15 0.5q19 0 27 -7t8 -27q0 -29 -3 -49t-9.5 -35t-16.5 -27t-24 -25q-11 -3 -21 -3t-20 2q9 15 13 28t6 26.5t2 28v31.5q0 14 1.5 29.5t5.5 23.5z" />
    <glyph glyph-name="hyphen" unicode="-" horiz-adv-x="476" 
d="M82 261q-14 0 -19.5 6t-5.5 23q0 8 2.5 17t7.5 16h319q18 0 25.5 -6.5t7.5 -26.5q0 -11 -3 -17t-8 -12h-326z" />
    <glyph glyph-name="period" unicode="." horiz-adv-x="204" 
d="M68 76q8 4 16.5 4.5t15.5 0.5q24 0 33.5 -9.5t9.5 -35.5q0 -11 -2 -23t-6 -19q-8 -2 -15.5 -2.5t-15.5 -0.5q-25 0 -34.5 9.5t-9.5 35.5q0 11 2 23t6 17z" />
    <glyph glyph-name="slash" unicode="/" horiz-adv-x="456" 
d="M371 699q10 3 18 4.5t20 1.5q15 0 21.5 -7t-0.5 -20l-338 -678h-72z" />
    <glyph glyph-name="zero" unicode="0" horiz-adv-x="616" 
d="M296 -10q-62 0 -107.5 18t-75.5 60t-44.5 110.5t-14.5 169.5q0 56 6.5 108t18 96t28 77.5t37.5 53.5q44 17 87.5 22t87.5 5q62 0 107.5 -18.5t75.5 -61.5t44.5 -112t14.5 -170q0 -54 -6 -104.5t-17.5 -93.5t-28 -77t-37.5 -56q-45 -19 -88 -23t-88 -4zM190 629
q-14 -18 -25.5 -49t-19 -69t-11.5 -80.5t-4 -82.5q0 -84 9.5 -141.5t30 -92.5t53 -50t77.5 -15q29 0 63.5 4t62.5 18q14 21 25.5 52t19 67t11.5 76.5t4 81.5q0 84 -10 141.5t-31 93t-53 51.5t-76 16q-29 0 -63 -4.5t-63 -16.5z" />
    <glyph glyph-name="one" unicode="1" horiz-adv-x="279" 
d="M123 636q-20 -6 -38 -15t-40 -21q-8 14 -13 27.5t-7 29.5q20 11 42 22t42 19q13 4 23 6.5t21 2.5q23 0 31.5 -9t8.5 -31v-667h-70v636z" />
    <glyph glyph-name="two" unicode="2" horiz-adv-x="489" 
d="M434 534q0 -56 -20 -98.5t-51 -78t-68 -67.5t-72.5 -66t-64 -73.5t-41.5 -90.5h108q50 0 86 1t61.5 3t43 4t30.5 5q-1 -16 -4.5 -36.5t-10.5 -36.5h-372q-5 8 -10.5 24t-6.5 34q15 58 45 103.5t65.5 83.5t73 70.5t68.5 65.5t50.5 68t19.5 77q0 36 -10.5 59t-28.5 37
t-42.5 19.5t-53.5 5.5q-45 0 -87.5 -9.5t-81.5 -23.5q-7 14 -11 31t-3 33q41 12 87.5 22t103.5 10q43 0 79 -8t62 -28.5t41 -54.5t15 -85z" />
    <glyph glyph-name="three" unicode="3" horiz-adv-x="503" 
d="M168 347q-6 14 -8.5 26.5t-3.5 26.5l-1 1q36 24 69.5 54t60.5 61.5t46 63t25 59.5h-142q-38 0 -75 -1.5t-75 -3.5q-8 12 -13 30t-5 36h369q5 -8 10 -23.5t5 -34.5q-7 -30 -25.5 -63t-42 -64t-49.5 -57.5t-47 -42.5l-17 -14q66 -1 106 -14t61.5 -37.5t28 -60.5t6.5 -83
q0 -63 -14 -116t-40 -84q-40 -10 -80 -13t-82 -3q-60 0 -105 4.5t-81 13.5q-2 17 -3 32.5t1 30.5q40 -9 83.5 -14t90.5 -5q31 0 67 2.5t60 9.5q19 30 27.5 64.5t8.5 79.5q0 36 -5.5 62t-20.5 43t-41 25t-67 8z" />
    <glyph glyph-name="four" unicode="4" horiz-adv-x="517" 
d="M315 118h-271q-15 16 -15 60q11 65 36 116.5t56 94.5t64.5 80t61 72t45.5 71t18 77h65v-10q0 -49 -18 -89.5t-46 -78t-61 -74t-64 -76t-54.5 -84t-31.5 -98.5h215l1 182q13 3 29 3q20 0 30 -10.5t10 -39.5v-134q25 1 50.5 2.5t51.5 5.5q0 -16 -1.5 -32t-8.5 -38h-92v-118
h-70v118z" />
    <glyph glyph-name="five" unicode="5" horiz-adv-x="492" 
d="M77 378q-4 18 -5.5 40.5t-1.5 48.5q0 32 2.5 66t7 65.5t11 58t14.5 43.5h327q-2 -19 -7 -35t-13 -35q-28 6 -57 7.5t-62 1.5h-136q-5 -11 -9 -29.5t-7 -40t-5 -44t-2 -43.5q0 -14 1 -27t3 -22q95 -3 154.5 -15.5t93 -37t45.5 -61.5t12 -88q0 -27 -2.5 -56t-6 -57
t-8.5 -52t-11 -41q-41 -23 -92 -29t-98 -6q-48 0 -89 6t-78 16q-7 14 -10 31t-4 32q41 -11 82.5 -18t89.5 -7q38 0 75 4.5t66 15.5q8 45 11 82t3 69q0 43 -9.5 72t-40 47t-89 27t-155.5 11z" />
    <glyph glyph-name="six" unicode="6" horiz-adv-x="539" 
d="M263 -10q-54 0 -93 11t-65 37t-39 69.5t-13 108.5q0 76 9 148.5t26.5 136t42 115t55.5 84.5h295q-3 -37 -20 -65q-33 2 -65.5 3t-65.5 1h-108q-28 -34 -47.5 -89t-32.5 -121q35 11 70.5 13.5t69.5 2.5q54 0 93 -11.5t65 -37.5t39 -68.5t13 -104.5q-2 -72 -19 -128.5
t-46 -83.5q-40 -15 -82 -18t-82 -3zM123 216q0 -50 9 -82.5t27 -51t45 -25.5t63 -7q26 0 56.5 2t56.5 13q18 24 28.5 68.5t12.5 89.5q0 92 -33.5 129t-112.5 37q-32 0 -71 -3.5t-72 -23.5q-9 -74 -9 -146z" />
    <glyph glyph-name="seven" unicode="7" horiz-adv-x="459" 
d="M76 0q0 67 19 122t48.5 103.5t64.5 94.5t67.5 94.5t57 103t32.5 120.5h-138q-45 0 -90.5 -1t-90.5 -3q-10 12 -14 30t-4 36h393q6 -8 10.5 -23.5t4.5 -34.5q-10 -73 -35 -132t-57.5 -110.5t-67.5 -97.5t-63.5 -93t-47.5 -98t-19 -111h-70z" />
    <glyph glyph-name="eight" unicode="8" horiz-adv-x="575" 
d="M279 -10q-57 0 -98.5 11t-69 37.5t-41.5 69t-14 105.5q0 60 21.5 103t55.5 70q9 2 18.5 3.5t19.5 3.5q-36 17 -60 49t-24 85q2 53 15.5 96t36.5 62q36 14 76.5 17t79.5 3q48 0 83.5 -8.5t59.5 -29t36 -53.5t12 -81q-2 -51 -18 -88.5t-41 -63.5q-8 -4 -12 -5
q45 -19 73 -58t29 -105q-2 -66 -18 -117t-42 -77q-44 -20 -87 -24.5t-91 -4.5zM411 71q15 23 25.5 62t10.5 80q0 34 -9 60t-29.5 43.5t-54 26.5t-82.5 9q-23 0 -50 -1.5t-51 -7.5q-18 -20 -31.5 -52.5t-13.5 -77.5q0 -48 9 -79.5t29 -50.5t50.5 -26.5t74.5 -7.5q27 0 60.5 4
t61.5 18zM390 422q11 18 20 48.5t9 59.5q0 66 -28 93t-100 27q-26 0 -56 -2t-54 -11q-14 -19 -20.5 -52t-6.5 -62q0 -34 14 -56t35 -34.5t46.5 -17.5t49.5 -5q23 0 46 2.5t45 9.5z" />
    <glyph glyph-name="nine" unicode="9" horiz-adv-x="544" 
d="M492 461q0 -73 -9.5 -144t-27.5 -132.5t-45 -109.5t-62 -75h-274q-11 13 -16 32t-5 36q44 -7 84.5 -8t84.5 -1h91q35 36 57.5 90t35.5 120q-34 -8 -68.5 -11t-67.5 -3q-56 0 -96.5 11.5t-67 37.5t-40 68.5t-13.5 104.5q2 72 18.5 128.5t47.5 82.5q42 15 85 18.5t83 3.5
q52 0 90.5 -12t63.5 -39t37.5 -71.5t13.5 -109.5v-17zM424 478q0 50 -8.5 83.5t-26 53t-44 27.5t-63.5 8q-25 0 -58.5 -2.5t-59.5 -13.5q-24 -26 -33 -67.5t-9 -89.5q0 -44 8.5 -75t27.5 -50.5t48 -28t71 -8.5q33 0 69 3.5t70 17.5q4 34 6 69.5t2 72.5z" />
    <glyph glyph-name="colon" unicode=":" horiz-adv-x="210" 
d="M71 76q8 4 16.5 4.5t15.5 0.5q24 0 34 -9.5t10 -35.5q0 -11 -2.5 -23t-5.5 -19q-8 -2 -16 -2.5t-16 -0.5q-24 0 -34 9.5t-10 35.5q0 11 2 23t6 17zM71 396q8 4 16.5 4.5t15.5 0.5q24 0 34 -9.5t10 -35.5q0 -11 -2.5 -23t-5.5 -19q-8 -2 -16 -2.5t-16 -0.5q-24 0 -34 9.5
t-10 35.5q0 11 2 23t6 17z" />
    <glyph glyph-name="semicolon" unicode=";" horiz-adv-x="210" 
d="M71 76q8 4 16.5 4.5t15.5 0.5q24 0 34 -9.5t10 -35.5q0 -11 -2.5 -23t-5.5 -19q-8 -2 -16 -2.5t-16 -0.5q-24 0 -34 9.5t-10 35.5q0 11 2 23t6 17zM71 396q8 4 16.5 4.5t15.5 0.5q24 0 34 -9.5t10 -35.5q0 -11 -2.5 -23t-5.5 -19q-8 -2 -16 -2.5t-16 -0.5q-24 0 -34 9.5
t-10 35.5q0 11 2 23t6 17z" />
    <glyph glyph-name="less" unicode="&#x3c;" horiz-adv-x="389" 
d="M26 371l238 293q11 6 19 8.5t19 2.5q27 0 27 -20q0 -13 -13 -29l-212 -256l241 -300h-80z" />
    <glyph glyph-name="equal" unicode="=" horiz-adv-x="492" 
d="M395 461q18 0 25 -6t7 -26q0 -11 -2.5 -17t-7.5 -12h-327q-14 0 -19.5 6t-5.5 23q0 19 10 32h320zM395 261q18 0 25 -6t7 -26q0 -11 -2.5 -17t-7.5 -12h-327q-14 0 -19.5 6t-5.5 23q0 19 10 32h320z" />
    <glyph glyph-name="greater" unicode="&#x3e;" horiz-adv-x="394" 
d="M288 371l-235 296q9 5 17.5 6.5t23.5 1.5q14 0 23 -4.5t15 -12.5l236 -289l-249 -299h-77z" />
    <glyph glyph-name="question" unicode="?" horiz-adv-x="488" 
d="M156 76q8 4 16.5 4.5t15.5 0.5q24 0 34 -9.5t10 -35.5q0 -11 -2.5 -23t-6.5 -19q-7 -2 -15 -2.5t-16 -0.5q-24 0 -34 9.5t-10 35.5q0 11 2 23t6 17zM451 505q0 -14 -11.5 -36.5t-50.5 -52.5q-28 -22 -58 -40t-55 -35.5t-41 -36t-16 -41.5v-35h-70v42q0 25 17.5 47.5
t43.5 43.5t56 40.5t56 37.5t42 37t16 36q0 36 -9.5 70.5t-33.5 54.5q-26 5 -59 7t-66 2q-48 0 -88.5 -4t-79.5 -10q-4 13 -6 30t0 36q37 5 79.5 8.5t91.5 3.5q44 0 86 -3t87 -12q16 -10 29 -29.5t22 -45t13.5 -55.5t4.5 -60z" />
    <glyph glyph-name="at" unicode="@" horiz-adv-x="795" 
d="M542 248q14 -26 32.5 -36.5t38.5 -10.5q15 0 30.5 4.5t29.5 12.5q7 18 11.5 37t6.5 37t2.5 33t0.5 23q0 83 -16 142t-51 96t-90.5 54t-134.5 17q-47 0 -100.5 -2t-98.5 -14q-23 -19 -40.5 -52t-28.5 -73t-16.5 -84t-5.5 -84q0 -86 15.5 -145t51 -95.5t92 -52.5t139.5 -16
h59t60 1q6 -24 3 -49q-30 -1 -65 -1h-64q-90 0 -156 18t-109 60t-64 110.5t-21 169.5q0 56 8.5 108.5t24 97.5t38 79.5t49.5 54.5q56 15 112.5 18t113.5 3q91 0 157.5 -18.5t110 -61t64.5 -111.5t21 -170q0 -17 -2 -38t-6 -43t-11 -44t-16 -40q-16 -11 -29.5 -17t-27.5 -9.5
t-29 -4.5t-33 -1q-37 0 -69.5 26t-44.5 63q-30 -16 -61.5 -21.5t-66.5 -5.5q-38 0 -62 8.5t-38 26t-19.5 43.5t-5.5 61q0 38 11 69.5t29 56.5q24 12 53.5 18t59.5 6q57 0 101 -19q7 -3 13.5 -5.5t11.5 -7.5t8.5 -16t3.5 -30q0 -27 0.5 -54t2 -51t5.5 -42.5t12 -28.5z
M312 438q-13 -20 -18.5 -39.5t-5.5 -45.5q0 -29 4.5 -47.5t14.5 -29t26.5 -14.5t41.5 -4q22 0 49.5 4t50.5 15q-3 32 -4 61t-1 61v38q-15 7 -35 12t-43 5t-44.5 -4t-35.5 -12z" />
    <glyph glyph-name="A" unicode="A" horiz-adv-x="553" 
d="M411 189h-266l-54 -189h-70l207 699q9 3 22 4.5t22 1.5q17 0 30.5 -5.5t18.5 -20.5l222 -679h-73zM162 249h230l-120 384z" />
    <glyph glyph-name="B" unicode="B" horiz-adv-x="572" 
d="M79 0v689q39 8 83 14.5t95 6.5q38 0 73.5 -7t63 -25.5t44 -50.5t16.5 -83q0 -48 -13.5 -81.5t-42.5 -65.5q34 -7 58.5 -21t40.5 -37t23 -55.5t7 -77.5q0 -73 -18 -119.5t-48 -69.5q-16 -5 -33 -8t-38.5 -5t-49.5 -3t-66 -1h-195zM149 348v-292h122q37 0 71.5 3t70.5 12
q24 24 33 57t9 75q0 40 -7.5 68t-24.5 45t-45 24.5t-69 7.5h-160zM149 404h173q32 26 47.5 55t15.5 74q0 38 -10.5 61.5t-28 36.5t-40.5 17.5t-48 4.5q-29 0 -55.5 -2.5t-52.5 -7.5z" />
    <glyph glyph-name="C" unicode="C" horiz-adv-x="566" 
d="M355 -10q-81 0 -138.5 19t-94.5 59t-54.5 101.5t-17.5 146.5q0 66 12 126t33.5 109.5t52 87t66.5 60.5q38 5 78 8t87 3q45 0 83 -1.5t76 -6.5q0 -13 -5 -30t-13 -31q-35 5 -66.5 6.5t-77.5 1.5q-35 0 -63 -1.5t-62 -6.5q-25 -17 -48 -48.5t-40.5 -73.5t-28 -93
t-10.5 -108q0 -73 14.5 -124t44 -83t74.5 -46.5t107 -14.5q46 0 89.5 8t85.5 31q-2 -34 -13 -68q-42 -19 -85.5 -25t-85.5 -6z" />
    <glyph glyph-name="D" unicode="D" horiz-adv-x="666" 
d="M79 686q28 7 60 11.5t62.5 7.5t57 4t44.5 1q66 0 123 -14t98.5 -52t65.5 -105t24 -173q0 -68 -8.5 -122t-24 -96t-36.5 -74.5t-46 -56.5q-46 -16 -101 -21.5t-112 -5.5q-69 0 -118 5t-89 14v677zM305 650q-46 0 -87 -4.5t-68 -11.5v-573q27 -5 63.5 -8.5t79.5 -3.5
q38 0 80.5 4.5t78.5 17.5q38 45 62.5 118t24.5 179q0 87 -18 142t-49.5 86t-74 42.5t-92.5 11.5z" />
    <glyph glyph-name="E" unicode="E" 
d="M463 700q-2 -16 -7 -33t-12 -33q-28 3 -47 4.5t-37 2.5t-39.5 1h-55.5h-114v-258h225q-3 -16 -7 -32.5t-11 -31.5q-26 3 -53 4t-53 2h-101v-268h100h66.5t52.5 1t45 3t44 5q-2 -20 -7.5 -39t-11.5 -28h-359v700h382z" />
    <glyph glyph-name="F" unicode="F" horiz-adv-x="472" 
d="M455 700q-4 -32 -17 -65l-49 3.5t-42 2t-45 1t-58 0.5h-93v-292h234q-3 -16 -7 -32t-11 -29q-51 2 -107.5 2.5t-108.5 0.5v-292h-70v700h374z" />
    <glyph glyph-name="G" unicode="G" horiz-adv-x="636" 
d="M341 -10q-154 0 -222 83t-68 244q0 133 33 226.5t93 141.5q34 13 77.5 19t110.5 6q49 0 98.5 -3t113.5 -14q-3 -17 -8 -30.5t-13 -28.5q-53 11 -98 13.5t-87 2.5q-56 0 -91 -6t-61 -14q-43 -42 -69.5 -119.5t-26.5 -189.5q0 -139 52 -205t165 -66q89 0 157 23
q4 25 7 54.5t5 61t3 62.5t1 59q-35 0 -69 -0.5t-69 -4.5q2 17 4 33.5t7 33.5h154q28 0 35 -7.5t7 -38.5q0 -35 -2 -73.5t-4.5 -77t-6 -75.5t-6.5 -68q-57 -25 -114 -33.5t-108 -8.5z" />
    <glyph glyph-name="H" unicode="H" horiz-adv-x="635" 
d="M491 301h-341v-301h-70v701q7 2 15.5 3t14.5 1q22 0 31 -10.5t9 -39.5v-292h341v338q7 2 15.5 3t15.5 1q22 0 30.5 -10.5t8.5 -39.5v-655h-70v301z" />
    <glyph glyph-name="I" unicode="I" horiz-adv-x="231" 
d="M80 701q7 2 15.5 3t14.5 1q22 0 31 -10.5t9 -39.5v-655h-70v701z" />
    <glyph glyph-name="J" unicode="J" horiz-adv-x="459" 
d="M12 66q16 -3 35.5 -5.5l39 -5t38.5 -3.5t34 -1q29 0 65.5 4t65.5 12q5 13 9 37.5t7 56t5 68t2 73.5l1 400q7 2 15 2.5t14 0.5q21 0 30.5 -10.5t9.5 -39.5v-354q-1 -47 -3 -92t-6.5 -83.5t-11.5 -68.5t-16 -46q-41 -10 -83 -15t-88 -5q-18 0 -39 1t-42 2.5t-40 4t-32 5.5
q-5 9 -7.5 27.5t-2.5 34.5z" />
    <glyph glyph-name="K" unicode="K" horiz-adv-x="544" 
d="M80 701q7 2 15.5 3t14.5 1q22 0 31 -10.5t9 -39.5v-286l294 331q14 5 39 5q18 0 25.5 -8t-3.5 -22l-283 -315l319 -360h-83l-308 351v-351h-70v701z" />
    <glyph glyph-name="L" unicode="L" horiz-adv-x="472" 
d="M80 701q7 2 15.5 3t14.5 1q22 0 31 -10.5t9 -39.5v-593h118q35 0 61.5 0.5t48.5 1.5t41.5 3t41.5 6q-2 -20 -6.5 -41.5t-9.5 -31.5h-365v701z" />
    <glyph glyph-name="M" unicode="M" horiz-adv-x="821" 
d="M81 700q13 3 26 4t27 1q19 0 34.5 -11t35.5 -51l210 -427l231 485q11 2 25 3t23 1q24 0 36 -9t12 -32v-664h-67v615l-229 -474h-61l-237 473v-614h-67z" />
    <glyph glyph-name="N" unicode="N" horiz-adv-x="662" 
d="M81 701q17 4 49 4q23 0 39.5 -8.5t30.5 -33.5l284 -464q13 -22 21.5 -39.5t16.5 -37.5q-2 20 -2.5 41t-0.5 41v497q6 2 13.5 3t15.5 1q18 0 25.5 -8.5t7.5 -30.5v-670h-51l-326 538q-17 27 -33 57.5t-32 57.5q2 -21 3.5 -45t1.5 -45v-559h-64z" />
    <glyph glyph-name="O" unicode="O" horiz-adv-x="688" 
d="M335 -10q-72 0 -125.5 18t-89 60t-52.5 110.5t-17 169.5q0 55 8 106.5t21.5 95t32.5 77.5t41 53q50 21 99.5 25.5t99.5 4.5q72 0 125.5 -19t88.5 -62t52.5 -112t17.5 -169q0 -112 -28.5 -197.5t-74.5 -130.5q-49 -22 -99 -26t-100 -4zM201 630q-16 -16 -29.5 -46.5
t-24 -68.5t-16.5 -81.5t-6 -85.5q0 -84 12 -141.5t38 -92.5t65.5 -50t95.5 -15q17 0 37 0.5t40 2.5t39 6t35 12q16 19 30 49t24 67t16 78.5t6 83.5q0 83 -12 141t-38 94t-66 52t-95 16q-36 0 -78 -4.5t-73 -16.5z" />
    <glyph glyph-name="P" unicode="P" horiz-adv-x="550" 
d="M513 487q0 -62 -18.5 -112t-66.5 -104q-44 -11 -86 -15t-98 -4h-94v-252h-70v682q15 6 37 11t48 9t54.5 6t55.5 2q53 0 97 -10.5t75.5 -36t48.5 -68.5t17 -108zM150 312h79q47 0 81.5 4t67.5 9q31 32 47 71t16 92q0 49 -12 81.5t-34 51t-52.5 26t-67.5 7.5
q-30 0 -56.5 -3.5t-68.5 -12.5v-326z" />
    <glyph glyph-name="Q" unicode="Q" horiz-adv-x="688" 
d="M335 -10q-72 0 -125.5 18t-89 60t-52.5 110.5t-17 169.5q0 55 8 106.5t21.5 95t32.5 77.5t41 53q50 21 99.5 25.5t99.5 4.5q72 0 125.5 -19t88.5 -62t52.5 -112t17.5 -169q0 -112 -28.5 -197.5t-74.5 -130.5l-15 -6l77 -109q-8 -5 -20 -7t-22 -2h-2q-17 0 -27.5 6
t-18.5 19l-52 76q-30 -5 -60 -6t-59 -1zM201 630q-16 -16 -29.5 -46.5t-24 -68.5t-16.5 -81.5t-6 -85.5q0 -84 12 -141.5t38 -92.5t65.5 -50t95.5 -15q18 0 38.5 0.5t41.5 2.5l-75 112q3 3 14.5 4.5t14.5 1.5q21 0 34.5 -5t24.5 -23l52 -75l6 3q16 19 30 49t24 67t16 78.5
t6 83.5q0 83 -12 141t-38 94t-66 52t-95 16q-36 0 -78 -4.5t-73 -16.5z" />
    <glyph glyph-name="R" unicode="R" horiz-adv-x="571" 
d="M386 282l170 -282h-79l-162 273l-164 -1v-272h-70v683q15 6 38.5 10.5t49.5 8.5t52.5 6t49.5 2q51 0 93 -9t72 -32.5t46 -63.5t16 -102q0 -39 -6.5 -69t-20 -55.5t-33 -47.5t-44.5 -45zM151 331h183q21 16 37.5 32.5t28 36t17.5 44.5t6 57q0 47 -10.5 77t-30 47t-47.5 23
t-62 6q-14 0 -27 -0.5t-27 -2t-30.5 -5t-37.5 -8.5v-307z" />
    <glyph glyph-name="S" unicode="S" horiz-adv-x="509" 
d="M245 344q-51 6 -86.5 17t-57 29.5t-31.5 48t-10 73.5v16t1 17q2 38 9 75t19 71q46 13 91 16t92 3q51 0 96 -3.5t85 -11.5q-2 -16 -5 -30.5t-11 -28.5q-32 8 -71.5 11t-81.5 3q-39 0 -76.5 -2t-63.5 -10q-8 -21 -11.5 -45t-5.5 -49q-3 -43 5 -68.5t27.5 -40.5t51.5 -22
t78 -13q54 -7 88 -26t53.5 -45.5t26.5 -58.5t7 -64q0 -61 -10 -114.5t-28 -81.5q-49 -13 -96 -16.5t-93 -3.5q-57 0 -104 4.5t-89 14.5q-7 16 -9 33t-4 37q21 -7 46 -12.5t51 -9.5t52 -6t50 -2q41 0 79 4t64 11q11 25 18 64t7 76q0 24 -7.5 47t-25 42t-47 32.5t-73.5 18.5z
" />
    <glyph glyph-name="T" unicode="T" horiz-adv-x="529" 
d="M518 701q-3 -34 -14 -67q-26 1 -41 2.5t-28.5 2t-30.5 1t-47 0.5h-58v-640h-70v640h-58q-30 0 -47 -0.5t-30.5 -1t-28 -2t-40.5 -2.5q-6 17 -9 33.5t-5 33.5h507z" />
    <glyph glyph-name="U" unicode="U" horiz-adv-x="631" 
d="M310 -10q-61 0 -105 13t-73 43t-43 79.5t-14 122.5l1 454q7 2 15 2.5t15 0.5q20 0 29.5 -10.5t9.5 -39.5v-407q0 -56 10 -94.5t30.5 -61.5t53 -33t78.5 -10q28 0 63 3.5t62 17.5q10 13 18 32.5t13.5 43t9 49.5t3.5 52v1l1 454q7 2 15 2.5t15 0.5q20 0 29.5 -10.5
t9.5 -39.5v-408q-1 -78 -17.5 -137t-48.5 -93q-43 -19 -89.5 -23t-90.5 -4z" />
    <glyph glyph-name="V" unicode="V" horiz-adv-x="565" 
d="M51 705q15 0 25.5 -6t16.5 -24l189 -602l199 628q16 4 40 4q35 0 23 -32l-216 -673h-91l-223 698q7 4 15 5.5t22 1.5z" />
    <glyph glyph-name="W" unicode="W" horiz-adv-x="899" 
d="M65 705q15 0 26 -5.5t16 -25.5l142 -615h4l159 641q6 2 13.5 3.5t21.5 1.5q13 0 23.5 -5t14.5 -20l164 -623h5l150 643q20 5 38 5t24 -7t2 -21l-169 -677h-96l-147 559q-2 8 -3.5 22t-2.5 25q-2 -11 -4 -25t-4 -22l-142 -559h-98l-176 700q9 3 18.5 4t20.5 1z" />
    <glyph glyph-name="X" unicode="X" horiz-adv-x="534" 
d="M8 0l213 360l-191 337q7 5 15 6.5t22 1.5q11 0 22.5 -5t19.5 -17l158 -282l167 297q17 7 38 7q20 0 22.5 -10.5t-5.5 -25.5l-175 -309l-1 -1l213 -359h-78l-180 316l-181 -316h-79z" />
    <glyph glyph-name="Y" unicode="Y" horiz-adv-x="538" 
d="M233 0v281l-215 419q11 5 38 5q13 0 25 -4.5t19 -18.5l167 -329l180 346q8 4 18.5 5t20.5 1q20 0 25 -9.5t-4 -26.5l-204 -388v-281h-70z" />
    <glyph glyph-name="Z" unicode="Z" horiz-adv-x="499" 
d="M110 58h183q22 0 42 0.5t41 1.5t43.5 3t50.5 5q-5 -48 -16 -68h-407q-11 14 -12.5 31.5t0.5 30.5l343 580h-186q-38 0 -75.5 -1t-74.5 -8q2 20 5.5 38t10.5 29h381q11 -9 13.5 -28.5t0.5 -32.5z" />
    <glyph glyph-name="bracketleft" unicode="[" horiz-adv-x="307" 
d="M81 667h2v4q0 8 2 16.5t6 11.5q7 5 18 5.5t20 0.5h100q23 0 33 -5.5t10 -25.5q0 -10 -2.5 -17.5t-4.5 -12.5q-6 -4 -14.5 -5t-14.5 -1h-87v-724h80q23 0 33 -6t10 -25q0 -10 -2.5 -18t-4.5 -13q-6 -3 -14.5 -4t-14.5 -1h-155v820z" />
    <glyph glyph-name="backslash" unicode="\" horiz-adv-x="454" 
d="M433 0h-73l-339 698q8 4 15.5 5.5t27.5 1.5q11 0 21.5 -7.5t16.5 -19.5z" />
    <glyph glyph-name="bracketright" unicode="]" horiz-adv-x="306" 
d="M42 -94q7 5 18 5.5t20 0.5h76v726h-72q-28 0 -39 6.5t-11 26.5q0 8 2 16.5t6 11.5q7 5 18 5.5t20 0.5h100q23 0 33 -5.5t10 -25.5q0 -10 -3 -19q4 -8 4 -26v-782h-19q-5 -1 -9.5 -1h-8.5h-103q-28 0 -39 6t-11 26q0 8 2 17t6 11z" />
    <glyph glyph-name="asciicircum" unicode="^" horiz-adv-x="482" 
d="M441 487h-62l-139 207l-138 -207h-62l165 254q10 4 21.5 6.5t22.5 2.5q9 0 18 -4.5t15 -13.5z" />
    <glyph glyph-name="underscore" unicode="_" horiz-adv-x="696" 
d="M599 -42q18 0 25 -6t7 -26q0 -11 -2.5 -17t-7.5 -12h-532q-14 0 -20 6t-6 23q0 19 11 32h525z" />
    <glyph glyph-name="grave" unicode="`" horiz-adv-x="858" 
d="M69 863q17 5 35 5q20 0 27.5 -4t14.5 -14l101 -145h-49z" />
    <glyph glyph-name="a" unicode="a" horiz-adv-x="484" 
d="M229 510q50 0 85 -8.5t56.5 -31t31 -63t9.5 -103.5v-91q0 -31 2.5 -62t8 -59t12.5 -52t16 -40h-69q-8 12 -16 36q-42 -24 -89.5 -33t-91.5 -9t-71.5 7t-43.5 22.5t-22 39.5t-6 59q0 38 6 72t14 56q50 9 101 12t117 3h64v39q0 45 -5 73.5t-19 45t-39 22.5t-65 6
q-41 0 -78.5 -4t-69.5 -11q1 6 3 15t4.5 18.5t5.5 18t6 12.5q15 3 35 5t40 3t38 1.5t30 0.5zM121 203q-3 -14 -7 -36t-4 -43q0 -20 3.5 -34t13.5 -23t28 -13t48 -4q35 0 75 6t75 26q-5 28 -7.5 61t-2.5 70h-64q-49 0 -85 -2.5t-73 -7.5z" />
    <glyph glyph-name="b" unicode="b" horiz-adv-x="529" 
d="M284 -7q-45 0 -80 5t-79 20l-8 -18h-48v725q18 5 33 5q20 0 28 -9.5t8 -33.5v-250q46 41 85.5 57t83.5 16q50 0 83.5 -15.5t53 -45.5t27.5 -73.5t8 -98.5q0 -56 -5.5 -97.5t-14 -72.5t-19.5 -53.5t-22 -41.5q-38 -14 -74.5 -16.5t-59.5 -2.5zM138 72q32 -11 61.5 -15
t65.5 -4q35 0 57.5 3t44.5 10q18 31 29.5 80.5t11.5 128.5q0 40 -4.5 72.5t-17.5 55t-36 35t-60 12.5q-36 0 -72 -15t-80 -57v-306z" />
    <glyph glyph-name="c" unicode="c" horiz-adv-x="448" 
d="M261 -6q-109 0 -161 56.5t-52 181.5q0 98 29.5 166t77.5 103q30 5 64.5 7t57.5 2q30 0 67 -2t65 -7q-2 -14 -6.5 -31t-11.5 -31q-24 5 -53 8.5t-60 3.5q-44 0 -87 -6q-33 -33 -52.5 -87t-19.5 -126q0 -98 39.5 -139.5t116.5 -41.5q35 0 71 7.5t70 24.5q0 -13 -3 -32
t-8 -30q-33 -14 -67.5 -20.5t-76.5 -6.5z" />
    <glyph glyph-name="d" unicode="d" horiz-adv-x="521" 
d="M218 -10q-88 0 -128.5 54t-40.5 166q0 42 5.5 83.5t16.5 78.5t26.5 68t36.5 51q29 8 64.5 13.5t79.5 5.5q32 0 55.5 -1t48.5 -4v220q17 5 33 5q20 0 28 -9.5t8 -33.5v-687h-59l-7 55q-19 -20 -40 -33t-42 -20t-42.5 -9.5t-42.5 -2.5zM240 50q15 0 32.5 3t36 10.5t37 21.5
t36.5 35v327q-20 2 -40.5 2.5t-46.5 0.5q-32 0 -60.5 -3t-57.5 -11q-23 -31 -40.5 -89t-17.5 -130q0 -88 29.5 -127.5t91.5 -39.5z" />
    <glyph glyph-name="e" unicode="e" 
d="M275 510q45 0 77.5 -6t53.5 -21.5t31.5 -42t10.5 -67.5q0 -39 -6 -72t-17 -56q-35 -8 -75 -11.5t-88 -3.5q-39 0 -75 0.5t-68 4.5q1 -52 8 -87t25 -56.5t49 -30.5t78 -9q50 0 89 9t81 26q-2 -16 -4.5 -34.5t-7.5 -30.5q-33 -14 -80 -21.5t-94 -7.5q-57 0 -97.5 12t-66 42
t-37.5 80t-12 126q0 40 5.5 76.5t15 67t22 54.5t26.5 39q16 6 36 9.5t40.5 6t41 3.5t38.5 1zM370 297q5 11 8.5 32.5t3.5 42.5q0 48 -26 64.5t-82 16.5q-70 0 -109 -15q-17 -24 -29.5 -65.5t-14.5 -81.5q25 -3 58 -4t74 -1q34 0 67.5 3t49.5 8z" />
    <glyph glyph-name="f" unicode="f" horiz-adv-x="317" 
d="M97 440h-76q2 15 6 30t10 30h60q3 80 18.5 141t40.5 92q23 4 42.5 5.5t42.5 1.5q25 0 47.5 -1t44.5 -5q-2 -14 -6.5 -30t-13.5 -30q-15 3 -27 4t-29 1q-14 0 -29 -1.5t-26 -3.5q-14 -24 -24 -70t-12 -104h136q-2 -15 -5.5 -30.5t-9.5 -29.5h-121v-440h-69v440z" />
    <glyph glyph-name="g" unicode="g" horiz-adv-x="531" 
d="M270 201h-16t-16 1q-21 0 -44 -1.5t-37 -6.5q-8 -16 -9 -31t-1 -23q0 -4 2.5 -7.5t11.5 -6t25.5 -4.5t45.5 -2h47q87 0 134.5 -13t69.5 -35t26 -50.5t4 -59.5q0 -73 -34 -135q-53 -14 -109.5 -16.5t-109.5 -2.5q-60 0 -102.5 12.5t-69.5 33.5t-39.5 48.5t-12.5 57.5
q0 37 8.5 74.5t24.5 67.5l31 7q-10 7 -13.5 15t-3.5 16q0 23 4 42t11 41q19 5 36 8q-38 22 -54.5 55t-16.5 70q0 36 11 71.5t33 64.5q38 11 80 14.5t82 3.5q41 0 71 -9t51 -26l87 45l6 -10q3 -4 5 -10.5t2.5 -13.5t-1.5 -13t-7 -9l-56 -30q18 -35 18 -76q0 -36 -11.5 -73
t-31.5 -66q-32 -12 -65.5 -15t-66.5 -3zM122 54q-11 -20 -16.5 -44t-5.5 -47q0 -20 8.5 -38.5t27.5 -32.5t50.5 -23t78.5 -9q18 0 39.5 1t43 2.5t42 4t38.5 6.5q9 22 15 42t6 43q0 21 -2.5 40.5t-19.5 34.5t-54.5 24t-106.5 9h-29q-29 0 -59.5 -2t-55.5 -11zM152 445
q-12 -21 -18.5 -42t-6.5 -47q0 -19 7.5 -37.5t24 -32.5t43.5 -23t66 -9q20 0 43 2t43 10q14 19 20.5 44.5t6.5 48.5q0 18 -6 36t-19.5 32t-36 23t-54.5 9q-25 0 -58 -3t-55 -11z" />
    <glyph glyph-name="h" unicode="h" horiz-adv-x="527" 
d="M70 725q18 5 33 5q20 0 28 -9.5t8 -33.5v-250q45 43 89.5 58t84.5 15q38 0 66 -9t46 -29.5t27 -55t9 -85.5v-331h-68v327q0 68 -23.5 96.5t-78.5 28.5q-36 0 -76 -17.5t-76 -59.5v-375h-69v725z" />
    <glyph glyph-name="i" unicode="i" horiz-adv-x="212" 
d="M72 496q8 2 17 3t17 1q20 0 27.5 -9t7.5 -31v-460h-69v496zM75 713q13 4 31 4q21 0 30 -9t9 -32q0 -24 -9 -38q-6 -4 -13.5 -4.5t-14.5 -0.5q-23 0 -32 9t-9 34q0 23 8 37z" />
    <glyph glyph-name="j" unicode="j" horiz-adv-x="213" 
d="M72 496q8 2 17 3t17 1q20 0 27.5 -9t7.5 -31v-461q0 -72 -13 -128.5t-33 -79.5q-17 -5 -32.5 -6.5t-32.5 -1.5q-20 0 -36 1t-33 4q-6 11 -9 28t-2 33q12 -2 27 -3.5t30 -1.5q24 0 42 3q10 19 16.5 61.5t6.5 90.5v497zM83 713q13 4 30 4q21 0 30.5 -9t9.5 -32
q0 -24 -9 -38q-7 -4 -14.5 -4.5t-13.5 -0.5q-23 0 -32 9t-9 34q0 23 8 37z" />
    <glyph glyph-name="k" unicode="k" horiz-adv-x="458" 
d="M70 725q17 5 33 5q20 0 27.5 -9.5t7.5 -33.5v-427l218 237q8 2 19.5 2.5t19.5 0.5q22 0 25 -10t-11 -26l-198 -207l250 -257h-82l-241 248v-248h-68v725z" />
    <glyph glyph-name="l" unicode="l" horiz-adv-x="214" 
d="M73 725q17 5 33 5q20 0 27.5 -9.5t7.5 -33.5v-687h-68v725z" />
    <glyph glyph-name="m" unicode="m" horiz-adv-x="849" 
d="M70 496q8 2 16.5 3t16.5 1q20 0 28 -9t8 -31v-23q45 43 89.5 58t84.5 15q54 0 88 -19t48 -67q48 51 95.5 68.5t90.5 17.5q38 0 66 -9t46.5 -29.5t27.5 -55t9 -85.5v-331h-69v327q0 68 -23.5 96.5t-77.5 28.5q-37 0 -77 -17.5t-76 -59.5v-375h-68v327q0 68 -23.5 96.5
t-78.5 28.5q-36 0 -76 -17.5t-76 -59.5v-375h-69v496z" />
    <glyph glyph-name="n" unicode="n" horiz-adv-x="527" 
d="M70 496q8 2 16.5 3t16.5 1q20 0 28 -9t8 -31v-23q45 43 89.5 58t84.5 15q38 0 66 -9t46 -29.5t27 -55t9 -85.5v-331h-68v327q0 68 -23.5 96.5t-78.5 28.5q-36 0 -76 -17.5t-76 -59.5v-375h-69v496z" />
    <glyph glyph-name="o" unicode="o" horiz-adv-x="533" 
d="M251 -9q-51 0 -89 13t-63 43t-37.5 79.5t-12.5 123.5q0 37 4.5 73t13.5 67.5t22 57.5t29 42q40 14 81.5 17t81.5 3q52 0 90 -13t63 -43.5t37.5 -80.5t12.5 -123q0 -36 -5 -72t-14 -67.5t-21.5 -57.5t-28.5 -42q-40 -14 -81.5 -17t-82.5 -3zM164 439q-21 -28 -33.5 -80
t-12.5 -109q0 -56 7.5 -95t24 -63t43 -34.5t63.5 -10.5q25 0 57.5 2.5t55.5 11.5q21 29 33 81t13 108q0 57 -7.5 96t-24.5 63t-43.5 34.5t-63.5 10.5q-25 0 -57 -2.5t-55 -12.5z" />
    <glyph glyph-name="p" unicode="p" horiz-adv-x="529" 
d="M138 438q46 40 85.5 56t83.5 16q50 0 83 -15.5t52.5 -45.5t27.5 -73.5t8 -98.5q0 -56 -5.5 -97.5t-14 -72.5t-19.5 -53.5t-21 -41.5q-38 -14 -74.5 -16.5t-60.5 -2.5q-41 0 -73.5 4t-71.5 16v-223h-68v705q17 5 33 5q20 0 27.5 -9.5t7.5 -33.5v-19zM290 450
q-36 0 -71.5 -14.5t-80.5 -56.5v-307q32 -12 61.5 -15.5t65.5 -3.5q35 0 57.5 3t43.5 10q18 31 30 80.5t12 128.5q0 40 -5 72.5t-18 55t-36 35t-59 12.5z" />
    <glyph glyph-name="q" unicode="q" horiz-adv-x="516" 
d="M378 30q-35 -23 -74.5 -29.5t-68.5 -6.5q-97 0 -141.5 54t-44.5 177q0 44 5 85.5t14.5 76.5t23.5 62.5t32 43.5q35 11 74 14t71 3q38 0 76 -3.5t67 -10.5q20 -4 27.5 -11.5t7.5 -32.5v-662h-69v240zM253 54q29 0 64 7t61 27v350q-26 8 -53 10t-51 2q-34 0 -58.5 -3
t-47.5 -8q-12 -14 -21 -37.5t-15 -52.5t-9.5 -61t-3.5 -63q0 -50 8.5 -83t25.5 -52.5t42 -27.5t58 -8z" />
    <glyph glyph-name="r" unicode="r" horiz-adv-x="341" 
d="M70 496q8 2 16.5 3t16.5 1q20 0 27.5 -9t7.5 -31v-61q18 50 55 80.5t104 30.5h30q0 -14 -4.5 -34.5t-12.5 -34.5h-17q-49 0 -79 -18t-46.5 -49.5t-22.5 -73t-7 -88.5v-212h-68v496z" />
    <glyph glyph-name="s" unicode="s" horiz-adv-x="431" 
d="M204 239q-41 4 -70 12.5t-47 25t-25 42.5t-4 65q2 29 8.5 56t16.5 50q38 14 74.5 17t74.5 3q41 0 77 -3.5t68 -13.5q-1 -28 -16 -56q-25 9 -55.5 13t-62.5 4q-29 0 -58 -2.5t-50 -11.5q-6 -12 -9 -27t-4 -29q-2 -28 3.5 -44t20.5 -25.5t40.5 -14.5t63.5 -9
q43 -5 70 -19.5t42.5 -34t21 -42t5.5 -44.5q0 -44 -9 -82t-24 -57q-37 -12 -77 -15t-75 -3q-47 0 -84.5 5t-72.5 16q-4 14 -7 29.5t-3 29.5q34 -11 75 -18t80 -7q32 0 62.5 3t52.5 11q8 16 12.5 39t4.5 46q0 16 -6 30.5t-20 27t-37 21t-57 12.5z" />
    <glyph glyph-name="t" unicode="t" horiz-adv-x="347" 
d="M104 440l-85 1q5 30 16 59h69v83q17 16 30 31t24 31h14v-145h129q-2 -15 -6 -30.5t-9 -29.5h-114v-285q0 -59 16.5 -82t60.5 -23q26 0 46.5 7t42.5 21q-2 -15 -4.5 -33t-6.5 -29q-17 -11 -41 -18.5t-59 -7.5q-29 0 -52 7t-39 25t-24 50t-8 82v286z" />
    <glyph glyph-name="u" unicode="u" horiz-adv-x="523" 
d="M66 496q8 2 16.5 3t16.5 1q20 0 27.5 -9t7.5 -31v-291q0 -63 24 -90t78 -27q35 0 74 10.5t75 34.5v399q8 2 16.5 3t16.5 1q20 0 27.5 -9t7.5 -31v-460h-58l-5 39q-45 -26 -90.5 -35.5t-85.5 -9.5q-38 0 -66 8.5t-46 28.5t-27 53t-9 82v330z" />
    <glyph glyph-name="v" unicode="v" horiz-adv-x="469" 
d="M16 496q8 2 17 3t16 1q24 0 32 -10t17 -38l135 -394l151 438q8 2 17.5 3t17.5 1q28 0 28 -19q0 -5 -2 -12.5t-5 -16.5l-160 -452h-94z" />
    <glyph glyph-name="w" unicode="w" horiz-adv-x="772" 
d="M391 404l-129 -404h-91l-153 497q16 3 32 3q26 0 35 -11.5t14 -35.5l119 -395l141 439q3 0 5 1q4 0 6 1q4 0 6.5 0.5t7.5 0.5h3q13 0 20 -2t11 -7.5t6.5 -14.5t6.5 -23l122 -395l135 439q8 2 16.5 2.5t15.5 0.5q29 0 29 -19q0 -10 -6 -28l-144 -453h-93z" />
    <glyph glyph-name="x" unicode="x" horiz-adv-x="450" 
d="M94 0h-73l150 247l-144 251q8 1 16.5 1.5t16.5 0.5q13 0 22 -1.5t14.5 -4.5t9 -8.5t7.5 -13.5l111 -195l123 221q8 1 17 1.5t16 0.5q24 0 29.5 -7t-5.5 -27l-126 -219l154 -247h-74l-134 217z" />
    <glyph glyph-name="y" unicode="y" horiz-adv-x="458" 
d="M229 55l147 442q6 1 14.5 2t15.5 1q25 0 28.5 -9t1.5 -24l-142 -412q-29 -83 -62 -154t-61 -111q-27 -5 -54 -6q-8 -1 -15 -1h-14q-17 0 -33.5 1.5t-36.5 5.5q-13 24 -13 52q18 -3 33.5 -4t35.5 -1q14 0 29 1t26 4q14 23 36 64t44 94h-27l-164 497q8 2 16.5 2.5t15.5 0.5
q13 0 21 -2.5t13 -8.5t8 -15t7 -22l130 -393v-4z" />
    <glyph glyph-name="z" unicode="z" horiz-adv-x="456" 
d="M115 56h183q34 0 66 1.5t66 9.5q0 -17 -5 -33.5t-14 -33.5h-362q-8 11 -11 28t-1 30l278 386h-127q-33 0 -69 -0.5t-70 -5.5q-6 12 -9 29.5t-3 32.5h347q11 -8 12.5 -25.5t-1.5 -28.5z" />
    <glyph glyph-name="braceleft" unicode="{" horiz-adv-x="313" 
d="M153 334q0 -22 -24 -40q13 -12 18.5 -22t5.5 -26v-65q0 -36 1.5 -71t6 -68t13.5 -62t25 -52q16 -8 34 -8q13 0 21 0.5t17 3.5l10 -58q-14 -4 -28.5 -4.5t-30.5 -0.5q-31 0 -62 9q-35 32 -55.5 101.5t-20.5 160.5v128q-12 0 -22 0.5t-20 3.5l-9 57q11 3 23 3.5t28 0.5v96
q0 98 20.5 172.5t55.5 109.5q31 9 62 9q16 0 30.5 -0.5t28.5 -4.5l-10 -59q-10 3 -17.5 3.5t-20.5 0.5q-18 0 -34 -8q-17 -28 -26 -64.5t-13.5 -77t-5.5 -84t-1 -84.5z" />
    <glyph glyph-name="bar" unicode="|" horiz-adv-x="229" 
d="M80 745q17 5 33 5q20 0 28 -9.5t8 -33.5v-907h-69v945z" />
    <glyph glyph-name="braceright" unicode="}" horiz-adv-x="313" 
d="M159 239q0 21 25 40q-14 12 -19.5 22t-5.5 26v73q0 35 -1.5 69.5t-6 66t-13.5 59.5t-25 50q-7 4 -16.5 6t-17.5 2q-13 0 -21 -0.5t-17 -3.5l-10 58q15 4 29 4.5t30 0.5q17 0 31.5 -2t30.5 -7q35 -32 55.5 -101.5t20.5 -160.5v-128q23 0 42 -4l9 -58q-11 -2 -23 -2.5
t-28 -0.5v-96q0 -98 -20.5 -172.5t-55.5 -109.5q-16 -5 -30.5 -7t-31.5 -2q-15 0 -30 0.5t-29 4.5l10 59q10 -3 18 -3.5t20 -0.5q20 0 34 8q17 28 26 64.5t13.5 77t5.5 84t1 84.5zM184 279h18v1z" />
    <glyph glyph-name="asciitilde" unicode="~" horiz-adv-x="588" 
d="M161 367q56 0 140 -29l9 -5l7 -2q34 -10 68 -17t57 -8q5 4 11 12.5t9 16.5q7 16 8.5 23.5t3.5 23.5l59 -13q-2 -17 -5.5 -31.5t-11.5 -33.5q-8 -17 -15.5 -29.5t-19.5 -26.5q-21 -6 -45 -6q-26 0 -56.5 6.5t-72.5 18.5h-2q-8 2 -14.5 4t-13.5 4l-17 5l-30 9q-27 8 -50 11
t-40 0q-11 -13 -17 -33q-3 -11 -5 -20.5t-3 -20.5l-58 11q3 16 6 30.5t9 31.5q5 16 11 27.5t14 25.5q25 15 64 15z" />
    <glyph glyph-name="uni00A0" unicode="&#xa0;" horiz-adv-x="206" 
 />
    <glyph glyph-name="exclamdown" unicode="&#xa1;" horiz-adv-x="237" 
d="M88 679q8 4 16.5 4.5t15.5 0.5q24 0 33.5 -9.5t9.5 -35.5q0 -11 -2 -23t-6 -19q-7 -2 -15.5 -2.5t-16.5 -0.5q-24 0 -33.5 9.5t-9.5 35.5q0 11 2 23t6 17zM158 -4q-7 -2 -17 -3.5t-17 -1.5q-23 0 -34 12t-11 44l9 458h55z" />
    <glyph glyph-name="cent" unicode="&#xa2;" horiz-adv-x="471" 
d="M332 509q21 -2 42.5 -4t38.5 -4q-2 -14 -6.5 -31t-11.5 -31q-24 5 -53 8.5t-60 3.5q-44 0 -87 -6q-33 -33 -52.5 -87t-19.5 -126q0 -98 39.5 -139.5t116.5 -41.5q35 0 71 7.5t70 24.5q0 -13 -3 -32t-8 -30q-19 -8 -38 -13.5t-39 -8.5v-88h-69v83q-107 1 -159 57.5
t-52 180.5q0 98 29.5 166t77.5 103q25 4 53 6t51 3v80q15 6 32 6q20 0 28.5 -9.5t8.5 -33.5v-44z" />
    <glyph glyph-name="sterling" unicode="&#xa3;" horiz-adv-x="533" 
d="M64 68q31 56 44 102.5t13 91.5q0 7 -0.5 14t-1.5 14h-41q-14 0 -20 6t-6 23q0 19 11 32h39q-12 33 -24 67t-12 80q0 31 6.5 62t18 57.5t28 46.5t37.5 30q36 9 69.5 12t68.5 3q48 0 90 -3.5t78 -8.5q2 -17 1 -33t-3 -33q-33 7 -68 11t-77 4q-29 0 -62 -3t-55 -10
q-17 -10 -28.5 -26t-19 -34t-11 -36.5t-3.5 -34.5q0 -38 14 -73.5t26 -77.5h206q18 0 25 -6t7 -26q0 -11 -2.5 -17t-7.5 -12h-217q1 -6 1.5 -12.5t0.5 -12.5q0 -55 -16 -103t-36 -96q32 -8 81 -10t97 -2t89 4.5t82 14.5q3 -14 3 -29t-1 -31q-41 -13 -86.5 -17.5t-100.5 -4.5
q-54 0 -109.5 2.5t-111.5 12.5q-5 8 -10.5 24.5t-5.5 37.5z" />
    <glyph glyph-name="currency" unicode="&#xa4;" horiz-adv-x="583" 
d="M101 119q-12 3 -25 15q-11 11 -8.5 22t19.5 28l25 24q-33 49 -33 145q1 43 8.5 80.5t21.5 65.5l-28 29q-11 11 -16 24q5 13 17 25t24.5 7.5t26.5 -18.5l18 -19q37 14 75 16t75 2q77 0 124 -27l33 31q11 11 25 15q12 -3 25 -15q11 -11 8.5 -21.5t-19.5 -27.5l-26 -25
q33 -51 33 -142q-2 -48 -11 -89t-26 -70l28 -29q12 -12 17 -23q-5 -13 -17 -25q-11 -12 -24 -7.5t-27 18.5l-26 25q-34 -10 -68.5 -11.5t-67.5 -1.5q-79 0 -124 26l-33 -32q-5 -5 -10.5 -9t-13.5 -6zM187 494q-20 -17 -31.5 -57t-11.5 -84q0 -80 33.5 -118t111.5 -38
q26 0 54 2.5t53 12.5q19 17 31 57t12 84q0 80 -34 118t-111 38q-26 0 -54 -2.5t-53 -12.5z" />
    <glyph glyph-name="yen" unicode="&#xa5;" horiz-adv-x="599" 
d="M267 0v110h-114q-14 0 -19.5 6t-5.5 23q0 19 10 32h129v109h-114q-14 0 -19.5 6t-5.5 23q0 19 10 32h95l-212 357q17 7 46 7q24 0 34 -16l201 -336l203 346q8 4 19 5t19 1q22 0 27 -10t-4 -26l-194 -328h86q18 0 25 -6t7 -26q0 -11 -2.5 -17t-7.5 -12h-142v-109h120
q18 0 25 -6t7 -26q0 -11 -2.5 -17t-7.5 -12h-142v-110h-71z" />
    <glyph glyph-name="brokenbar" unicode="&#xa6;" horiz-adv-x="229" 
d="M149 325h-68v420q17 5 33 5q20 0 27.5 -9.5t7.5 -33.5v-382zM81 213h68v-413h-68v413z" />
    <glyph glyph-name="section" unicode="&#xa7;" horiz-adv-x="574" 
d="M65 244q-6 21 -8.5 48.5t-2.5 53.5q0 20 2.5 40.5t7 38.5t11 32t14.5 20l36 6q-2 14 -2 29.5v34.5q0 24 2.5 47t7 43t11 35t14.5 23q47 9 91 11.5t88 2.5q54 0 99 -2.5t86 -8.5l-4 -62q-39 7 -79 10t-88 3q-38 0 -75.5 -2.5t-66.5 -7.5q-10 -16 -14 -42t-4 -53
q0 -26 3 -47q26 -2 52.5 -3.5t54.5 -3.5q32 -2 66 -6q38 -3 75 -7t72 -9q5 -18 7 -42t2 -48q0 -47 -8.5 -88.5t-25.5 -58.5q-10 -2 -19 -3t-19 -2q3 -30 3 -61q0 -21 -2.5 -44t-7 -44.5t-10.5 -40.5t-14 -31q-47 -9 -91 -11.5t-88 -2.5q-57 0 -103.5 2.5t-89.5 8.5l1 59
q41 -4 82 -7t89 -3q42 0 79 2t70 8q9 21 13.5 50t4.5 61v22t-2 22q-75 5 -159.5 12t-160.5 16zM454 416q-47 2 -98 6t-102 9q-64 -1 -117 -9q-7 -11 -12 -33t-5 -48q0 -20 5 -45q48 -3 99.5 -7t103.5 -9q30 0 59.5 2t53.5 8q6 21 10.5 43.5t4.5 48.5v16.5t-2 17.5z" />
    <glyph glyph-name="dieresis" unicode="&#xa8;" horiz-adv-x="364" 
d="M70 786q8 4 16.5 4.5t15.5 0.5q24 0 33.5 -9.5t9.5 -35.5q0 -11 -2 -23t-6 -19q-8 -2 -16 -2.5t-16 -0.5q-24 0 -33.5 9.5t-9.5 35.5q0 11 2 23t6 17zM229 786q8 4 16.5 4.5t15.5 0.5q24 0 33.5 -9.5t9.5 -35.5q0 -11 -2 -23t-6 -19q-7 -2 -15 -2.5t-16 -0.5
q-24 0 -34 9.5t-10 35.5q0 11 2 23t6 17z" />
    <glyph glyph-name="copyright" unicode="&#xa9;" horiz-adv-x="820" 
d="M404 161q-81 0 -119.5 43t-38.5 125q0 66 30 116t80 73q38 5 79 6t80 1q-2 -11 -3.5 -22.5t-4.5 -23.5q-29 0 -66 -0.5t-66 -5.5q-35 -22 -54.5 -62t-19.5 -82q0 -58 25.5 -90t88.5 -32q23 0 50.5 5t51.5 21q0 -10 -3 -25.5t-7 -25.5q-25 -16 -51 -18.5t-52 -2.5z
M768 378q0 -60 -9 -115t-25.5 -102t-38.5 -84t-47 -60q-27 -8 -55 -13t-61 -8t-72.5 -4.5t-88.5 -1.5q-74 0 -133 16.5t-100.5 55.5t-63.5 102.5t-22 156.5q0 63 8.5 119t24.5 102.5t38.5 82.5t49.5 57q63 18 131 22.5t146 4.5q72 0 131 -19.5t100.5 -60.5t64 -103.5
t22.5 -147.5zM205 635q-25 -21 -43 -55.5t-29.5 -76.5t-17 -89t-5.5 -93q0 -75 16 -128t49 -86.5t83.5 -49t119.5 -15.5q28 0 59 1t62.5 4t61 7.5t55.5 11.5q22 21 39.5 55.5t30 77.5t19 90t6.5 92q-1 143 -70.5 209.5t-194.5 66.5q-57 0 -122.5 -3.5t-118.5 -18.5z" />
    <glyph glyph-name="ordfeminine" unicode="&#xaa;" horiz-adv-x="323" 
d="M227 424q-4 3 -7 14q-21 -11 -42 -14.5t-44 -3.5q-26 0 -43 6t-26.5 17t-13 26.5t-3.5 34.5q0 23 4 44t9 37q24 4 45 5t49 1h54q0 15 -2.5 29.5t-10 25t-21.5 17t-39 6.5q-19 0 -35 -1.5t-31 -6.5q2 10 4 21t7 21q13 4 33 5t30 1q31 0 52.5 -6.5t34.5 -22t19 -41t6 -64.5
v-33q0 -16 1 -33.5t3.5 -33.5t6 -29.5t8.5 -21.5h-48zM99 553q-4 -10 -5 -21t-1 -25q0 -26 9.5 -37t44.5 -11q14 0 31.5 2.5t34.5 10.5q-2 16 -3 34t-1 36v13h-46h-34.5t-29.5 -2z" />
    <glyph glyph-name="guillemotleft" unicode="&#xab;" horiz-adv-x="489" 
d="M36 318l133 248q9 2 18 2.5t19 1.5q18 1 25 -6.5t-5 -29.5l-117 -216l134 -248h-73zM237 318l133 248q9 2 18 2.5t19 1.5q18 1 25 -6.5t-5 -29.5l-117 -216l134 -248h-73z" />
    <glyph glyph-name="logicalnot" unicode="&#xac;" horiz-adv-x="488" 
d="M419 197q-11 -7 -26 -7q-17 0 -24.5 9.5t-7.5 35.5v85h-275q-14 0 -20 6t-6 23q0 19 11 32h326q3 0 4 -1q12 -2 17 -8.5t5 -22.5v-1q1 -5 1 -11v-14v-90q0 -8 -1 -18t-4 -18z" />
    <glyph glyph-name="uni00AD" unicode="&#xad;" horiz-adv-x="476" 
d="M82 261q-14 0 -19.5 6t-5.5 23q0 8 2.5 17t7.5 16h319q18 0 25.5 -6.5t7.5 -26.5q0 -11 -3 -17t-8 -12h-326z" />
    <glyph glyph-name="registered" unicode="&#xae;" horiz-adv-x="820" 
d="M768 378q0 -60 -9 -115t-25.5 -102t-38.5 -84t-47 -60q-27 -8 -55 -13t-61 -8t-72.5 -4.5t-88.5 -1.5q-74 0 -133 16.5t-100.5 55.5t-63.5 102.5t-22 156.5q0 63 8.5 119t24.5 102.5t38.5 82.5t49.5 57q63 18 131 22.5t146 4.5q72 0 131 -19.5t100.5 -60.5t64 -103.5
t22.5 -147.5zM205 635q-25 -21 -43 -55.5t-29.5 -76.5t-17 -89t-5.5 -93q0 -75 16 -128t49 -86.5t83.5 -49t119.5 -15.5q28 0 59 1t62.5 4t61 7.5t55.5 11.5q22 21 39.5 55.5t30 77.5t19 90t6.5 92q-1 143 -70.5 209.5t-194.5 66.5q-57 0 -122.5 -3.5t-118.5 -18.5zM478 327
q-7 -2 -14.5 -3.5t-14.5 -3.5l101 -138h-60l-97 135h-53v-135h-50v351q9 4 23 6.5t30.5 4t33.5 2.5t32 1q70 0 104 -26.5t34 -95.5q0 -29 -16.5 -54t-52.5 -44zM340 362h102q24 8 39 24t15 39q0 24 -4 39.5t-13.5 24t-27 12t-44.5 3.5q-11 0 -28 -0.5t-39 -5.5v-136z" />
    <glyph glyph-name="macron" unicode="&#xaf;" horiz-adv-x="850" 
d="M318 760q17 0 24.5 -6.5t7.5 -23.5q0 -9 -2.5 -14.5t-7.5 -10.5h-231q-14 0 -20 5t-6 21t11 29h224z" />
    <glyph glyph-name="degree" unicode="&#xb0;" horiz-adv-x="310" 
d="M150 478q-52 0 -76.5 24t-24.5 85q0 34 7.5 61.5t20.5 38.5q20 7 41 8t41 1q52 0 76.5 -24t24.5 -85q0 -35 -7.5 -62t-20.5 -38q-20 -7 -41 -8t-41 -1zM105 655q-6 -10 -10 -30t-4 -38q0 -38 13.5 -55t48.5 -17q11 0 25.5 0.5t25.5 3.5q6 10 10 30t4 38q0 38 -13.5 55
t-48.5 17q-11 0 -25.5 -0.5t-25.5 -3.5z" />
    <glyph glyph-name="plusminus" unicode="&#xb1;" horiz-adv-x="473" 
d="M205 142q-4 8 -5 17t-1 17v144h-119q-14 0 -19.5 6t-5.5 23q0 8 2.5 17t7.5 15h134v127q0 31 6.5 42t23.5 11q7 0 15 -2t13 -5q4 -10 4.5 -19.5t0.5 -19.5v-134h123q17 0 24.5 -6t7.5 -26q0 -11 -2.5 -17t-7.5 -12h-145v-141q0 -24 -7 -34t-23 -10t-27 7zM80 35
q-14 0 -19.5 6t-5.5 23q0 8 2.5 17t7.5 15h320q17 0 24.5 -6t7.5 -26q0 -11 -2.5 -17t-7.5 -12h-327z" />
    <glyph glyph-name="uni00B2" unicode="&#xb2;" horiz-adv-x="365" 
d="M302 576q0 -24 -12.5 -43.5t-31.5 -36t-42 -32t-44 -32.5t-37.5 -36.5t-23.5 -44.5q20 -4 39.5 -5.5t45.5 -1.5q31 0 57.5 2t52.5 10q2 -11 1.5 -23.5t-0.5 -25.5q-26 -8 -55 -10.5t-65 -2.5q-29 0 -59.5 2t-61.5 7q-2 5 -6.5 19.5t-4.5 30.5q11 45 42.5 76t65 55
t59.5 45.5t26 47.5q0 18 -6.5 41.5t-23.5 34.5q-29 7 -66 7q-28 0 -51 -1.5t-46 -5.5q-6 24 -3 49q25 3 52.5 5t60.5 2q23 0 43 -2t43 -7q12 -6 21.5 -18.5t16 -29.5t10 -37t3.5 -39z" />
    <glyph glyph-name="uni00B3" unicode="&#xb3;" horiz-adv-x="358" 
d="M165 484q-6 -1 -12 -1.5t-11 -0.5q1 11 1.5 21t2.5 21v1h10q25 2 44.5 1.5t42.5 1.5q0 38 -3.5 72.5t-10.5 54.5q-14 2 -32.5 3t-36.5 1q-29 0 -52 -2l-46 -4q-2 11 -2.5 24.5t-1.5 24.5q25 3 53 5t60 2q26 0 50.5 -2t52.5 -7q6 -8 10.5 -25t7.5 -40t4.5 -49.5t1.5 -52.5
q0 -12 -9 -26q8 -8 9.5 -16.5t1.5 -16.5q0 -26 -1.5 -53t-4 -50.5t-6 -41.5t-8.5 -26q-26 -5 -49 -7t-47 -2q-37 0 -67 2.5t-58 10.5q-1 13 -1 25.5t2 23.5q28 -8 54.5 -10t60.5 -2q16 0 31 1t28 5q6 31 9 62t3 72h-81z" />
    <glyph glyph-name="acute" unicode="&#xb4;" horiz-adv-x="858" 
d="M189 841q8 2 18 2.5t18 0.5q41 0 17 -32l-86 -107h-52z" />
    <glyph glyph-name="mu" unicode="&#xb5;" horiz-adv-x="527" 
d="M66 496q8 2 16.5 3t16.5 1q20 0 27.5 -9t7.5 -31v-284q0 -67 24 -95.5t78 -28.5q35 0 74 17t75 55v372q8 2 16.5 3t16.5 1q20 0 27.5 -9t7.5 -31v-460h-58l-8 66q-45 -43 -89.5 -57.5t-83.5 -14.5q-47 0 -80 14v-252h-68v740z" />
    <glyph glyph-name="paragraph" unicode="&#xb6;" horiz-adv-x="423" 
d="M140 418q-67 3 -96.5 36.5t-29.5 111.5q0 31 7.5 56.5t16.5 42.5q26 14 54.5 24t52.5 15v-1l18 2h136q15 -2 20 -7q14 -10 14 -43v-655h-60v643h-73v-643h-60v418z" />
    <glyph glyph-name="periodcentered" unicode="&#xb7;" horiz-adv-x="205" 
d="M68 345q8 4 16.5 4.5t15.5 0.5q24 0 34 -9.5t10 -35.5q0 -11 -2.5 -23t-5.5 -19q-8 -2 -16 -2.5t-16 -0.5q-24 0 -34 9.5t-10 35.5q0 11 2 23t6 17z" />
    <glyph glyph-name="cedilla" unicode="&#xb8;" horiz-adv-x="856" 
d="M202 12h43l-2 -62q27 -6 45.5 -11.5t29 -14t15 -22t4.5 -34.5t-5 -40t-14 -32q-22 -6 -42.5 -7t-41.5 -1q-49 0 -85 6l2 38q17 -2 34 -3.5t38 -1.5q17 0 32 1t27 3q4 8 6.5 18.5t2.5 20.5q0 12 -4 19t-13.5 12.5t-27 9.5t-44.5 10v91z" />
    <glyph glyph-name="uni00B9" unicode="&#xb9;" horiz-adv-x="199" 
d="M77 648q-7 -3 -14.5 -4.5l-12.5 -2.5l-3 46q6 4 14 8t16 7q2 0 2.5 0.5t2.5 0.5q6 2 11.5 3t11.5 1h1q16 0 21 -9t5 -34v-364h-55v348z" />
    <glyph glyph-name="ordmasculine" unicode="&#xba;" horiz-adv-x="432" 
d="M209 294q-41 0 -71 10.5t-50 34.5t-30 63.5t-10 98.5q0 32 4.5 61.5t13 55t20 45t26.5 31.5q29 10 56 12.5t55 2.5q87 0 123.5 -50.5t36.5 -157.5q0 -66 -17.5 -116t-46.5 -76q-28 -11 -55.5 -13t-54.5 -2zM148 650q-11 -8 -19 -25.5t-14 -39t-9 -44t-3 -40.5
q0 -89 26 -124.5t85 -35.5q17 0 36.5 2t34.5 10q19 24 31.5 64.5t12.5 83.5q0 38 -5 68t-17.5 50.5t-33.5 31.5t-54 11q-18 0 -36 -2t-35 -10z" />
    <glyph glyph-name="guillemotright" unicode="&#xbb;" horiz-adv-x="492" 
d="M121 70h-72l132 246l-134 250q7 2 15.5 3t15.5 1q27 0 36 -7.5t17 -21.5l122 -224zM322 70h-72l132 246l-134 250q7 2 15.5 3t15.5 1q27 0 36 -7.5t17 -21.5l122 -224z" />
    <glyph glyph-name="onequarter" unicode="&#xbc;" horiz-adv-x="693" 
d="M78 648q-7 -3 -14.5 -4.5l-12.5 -2.5l-3 46q6 4 14 8t16 7q2 0 2.5 0.5t2.5 0.5q6 2 11.5 3t11.5 1h1q16 0 21 -9t5 -34v-364h-55v348zM558 84h-37q-32 0 -64 1t-65 8q-4 5 -6.5 18.5t-2.5 28.5q6 30 21.5 54.5t36 46.5t42.5 41t40 38t30 38t12 40h54v-6
q0 -26 -12.5 -48.5t-31.5 -43t-41.5 -40t-43 -39t-35.5 -40.5t-19 -45q20 -4 42 -4.5t48 -0.5h32l1 75q5 2 11.5 3t11.5 1q13 0 20 -6t7 -23v-47q12 2 24.5 3.5t24.5 5.5q2 -11 1.5 -22.5t-0.5 -23.5q-24 -6 -50 -9v-88h-51v84zM495 699q9 3 17.5 4.5t19.5 1.5
q17 0 19.5 -11.5t-8.5 -28.5l-433 -665h-69z" />
    <glyph glyph-name="onehalf" unicode="&#xbd;" horiz-adv-x="748" 
d="M78 648q-7 -3 -14.5 -4.5l-12.5 -2.5l-3 46q6 4 14 8t16 7q2 0 2.5 0.5t2.5 0.5q6 2 11.5 3t11.5 1h1q16 0 21 -9t5 -34v-364h-55v348zM495 699q9 3 17.5 4.5t19.5 1.5q17 0 19.5 -11.5t-8.5 -28.5l-433 -665h-69zM701 273q0 -24 -12.5 -43.5t-31.5 -36t-42 -32
t-44 -32.5t-38 -36.5t-23 -44.5q20 -4 39.5 -5.5t45.5 -1.5q31 0 57.5 2t52.5 10q2 -11 1.5 -23.5t-0.5 -25.5q-26 -8 -55 -10.5t-65 -2.5q-29 0 -59.5 2t-61.5 7q-2 5 -6.5 19.5t-4.5 30.5q11 45 42.5 76t65 55t59.5 45.5t26 47.5q0 18 -6.5 41.5t-23.5 34.5q-29 7 -66 7
q-28 0 -51 -1.5t-46 -5.5q-6 24 -3 49q25 3 52.5 5t60.5 2q23 0 43 -2t43 -7q12 -6 21.5 -18.5t16 -29.5t10 -37t3.5 -39z" />
    <glyph glyph-name="threequarters" unicode="&#xbe;" horiz-adv-x="856" 
d="M721 84h-37q-32 0 -64 1t-65 8q-4 5 -6.5 18.5t-2.5 28.5q6 30 21.5 54.5t36 46.5t42.5 41t40 38t30 38t12 40h54v-6q0 -26 -12.5 -48.5t-31.5 -43t-41.5 -40t-43 -39t-35.5 -40.5t-19 -45q20 -4 42 -4.5t48 -0.5h32l1 75q5 2 11.5 3t11.5 1q13 0 20 -6t7 -23v-47
q12 2 24.5 3.5t24.5 5.5q2 -11 1.5 -22.5t-0.5 -23.5q-24 -6 -50 -9v-88h-51v84zM658 699q9 3 17.5 4.5t19.5 1.5q17 0 19.5 -11.5t-8.5 -28.5l-433 -665h-69zM154 484q-6 -1 -12 -1.5t-11 -0.5q1 11 1.5 21t2.5 21v1h10q25 2 44.5 1.5t42.5 1.5q0 38 -3.5 72.5t-10.5 54.5
q-14 2 -32.5 3t-36.5 1q-29 0 -52 -2l-46 -4q-2 11 -2.5 24.5t-1.5 24.5q25 3 53 5t60 2q26 0 50.5 -2t52.5 -7q6 -8 10.5 -25t7.5 -40t4.5 -49.5t1.5 -52.5q0 -12 -9 -26q8 -8 9.5 -16.5t1.5 -16.5q0 -26 -1.5 -53t-4 -50.5t-6 -41.5t-8.5 -26q-26 -5 -49 -7t-47 -2
q-37 0 -67 2.5t-58 10.5q-1 13 -1 25.5t2 23.5q28 -8 54.5 -10t60.5 -2q16 0 31 1t28 5q6 31 9 62t3 72h-81z" />
    <glyph glyph-name="questiondown" unicode="&#xbf;" horiz-adv-x="488" 
d="M279 715q8 4 16.5 4.5t15.5 0.5q24 0 34 -9.5t10 -35.5q0 -11 -2.5 -23t-6.5 -19q-7 -2 -15 -2.5t-16 -0.5q-24 0 -34 9.5t-10 35.5q0 11 2 23t6 17zM36 194q0 14 11.5 37t50.5 52q28 22 58 40.5t55 36t41 36t16 41.5v35h70v-42q0 -25 -17.5 -47.5t-43.5 -43.5t-56 -40.5
t-56 -37.5t-42 -37t-16 -36q0 -36 9.5 -70.5t33.5 -54.5q26 -5 59.5 -7t65.5 -2q48 0 89 4t79 10q4 -13 6 -30t1 -36q-38 -5 -80.5 -8.5t-91.5 -3.5q-44 0 -85.5 3t-87.5 12q-16 10 -29 29.5t-22 45t-13.5 55t-4.5 59.5z" />
    <glyph glyph-name="Agrave" unicode="&#xc0;" horiz-adv-x="553" 
d="M411 189h-266l-54 -189h-70l207 699q9 3 22 4.5t22 1.5q17 0 30.5 -5.5t18.5 -20.5l222 -679h-73zM162 249h230l-120 384zM123 943q17 5 35 5q20 0 27.5 -4t14.5 -14l101 -145h-49z" />
    <glyph glyph-name="Aacute" unicode="&#xc1;" horiz-adv-x="553" 
d="M411 189h-266l-54 -189h-70l207 699q9 3 22 4.5t22 1.5q17 0 30.5 -5.5t18.5 -20.5l222 -679h-73zM162 249h230l-120 384zM331 923q8 2 18 2.5t18 0.5q41 0 17 -32l-86 -107h-52z" />
    <glyph glyph-name="Acircumflex" unicode="&#xc2;" horiz-adv-x="553" 
d="M411 189h-266l-54 -189h-70l207 699q9 3 22 4.5t22 1.5q17 0 30.5 -5.5t18.5 -20.5l222 -679h-73zM162 249h230l-120 384zM407 788h-61l-72 93l-82 -93h-64l118 136q4 5 13 7.5t20 2.5t16 -4t12 -13z" />
    <glyph glyph-name="Atilde" unicode="&#xc3;" horiz-adv-x="553" 
d="M411 189h-266l-54 -189h-70l207 699q9 3 22 4.5t22 1.5q17 0 30.5 -5.5t18.5 -20.5l222 -679h-73zM162 249h230l-120 384zM373 791q-19 -8 -40.5 -2.5t-43.5 15.5t-43 19.5t-38 9.5q-5 -6 -10 -21t-6 -23l-38 8q5 20 11 39t17 37q17 7 38.5 1.5t43.5 -15.5t43.5 -19.5
t38.5 -9.5q5 8 10.5 24t5.5 26l38 -7q-3 -22 -10 -42.5t-17 -39.5z" />
    <glyph glyph-name="Adieresis" unicode="&#xc4;" horiz-adv-x="553" 
d="M411 189h-266l-54 -189h-70l207 699q9 3 22 4.5t22 1.5q17 0 30.5 -5.5t18.5 -20.5l222 -679h-73zM162 249h230l-120 384zM159 871q8 4 16.5 4.5t15.5 0.5q24 0 33.5 -9.5t9.5 -35.5q0 -11 -2 -23t-6 -19q-8 -2 -16 -2.5t-16 -0.5q-24 0 -33.5 9.5t-9.5 35.5q0 11 2 23
t6 17zM318 871q8 4 16.5 4.5t15.5 0.5q24 0 33.5 -9.5t9.5 -35.5q0 -11 -2 -23t-6 -19q-7 -2 -15 -2.5t-16 -0.5q-24 0 -34 9.5t-10 35.5q0 11 2 23t6 17z" />
    <glyph glyph-name="Aring" unicode="&#xc5;" horiz-adv-x="553" 
d="M411 189h-266l-54 -189h-70l207 699q9 3 22 4.5t22 1.5q17 0 30.5 -5.5t18.5 -20.5l222 -679h-73zM162 249h230l-120 384zM269 780q-54 0 -80 19.5t-26 70.5q0 26 7 49.5t21 31.5q21 7 43 8t43 1q55 0 81 -19.5t26 -70.5q0 -28 -7 -50t-21 -31q-20 -7 -43 -8t-44 -1z
M224 917q-6 -7 -9.5 -21t-3.5 -26q0 -27 13.5 -38.5t47.5 -11.5q11 0 25 0.5t25 3.5q6 6 10 19.5t4 26.5q0 26 -13.5 38.5t-48.5 12.5q-11 0 -25 -0.5t-25 -3.5z" />
    <glyph glyph-name="AE" unicode="&#xc6;" horiz-adv-x="902" 
d="M539 701v-1h335q-2 -17 -5 -34.5t-8 -34.5q-30 2 -53 3.5t-46 2t-50 1t-64 0.5h-109v-254h240q-2 -16 -5.5 -31.5t-8.5 -30.5h-226v-260h116q36 0 62.5 0.5t48.5 1.5t41.5 3t40.5 6q-2 -20 -6 -41.5t-9 -31.5h-365v198h-272l-123 -198h-75l433 700h37v1h71zM468 260v375
l-234 -375h234z" />
    <glyph glyph-name="Ccedilla" unicode="&#xc7;" horiz-adv-x="566" 
d="M330 -9q-148 5 -214 83.5t-66 241.5q0 66 12 126t33.5 109.5t52 87t66.5 60.5q38 5 78 8t87 3q45 0 83 -1.5t76 -6.5q0 -13 -5 -30t-13 -31q-35 5 -66.5 6.5t-77.5 1.5q-35 0 -63 -1.5t-62 -6.5q-25 -17 -48 -48.5t-40.5 -73.5t-28 -93t-10.5 -108q0 -73 14.5 -124
t44 -83t74.5 -46.5t107 -14.5q46 0 89.5 8t85.5 31q-2 -34 -13 -68q-37 -17 -76.5 -23t-77.5 -8l-1 -41q27 -6 45.5 -11.5t29 -14t15 -22t4.5 -34.5t-5 -40t-14 -32q-22 -6 -42.5 -7t-41.5 -1q-49 0 -85 6l2 38q17 -2 34 -3.5t38 -1.5q17 0 32 1t27 3q4 8 6.5 18.5t2.5 20.5
q0 12 -4 19t-13.5 12.5t-27 9.5t-44.5 10v71z" />
    <glyph glyph-name="Egrave" unicode="&#xc8;" 
d="M463 700q-2 -16 -7 -33t-12 -33q-28 3 -47 4.5t-37 2.5t-39.5 1h-55.5h-114v-258h225q-3 -16 -7 -32.5t-11 -31.5q-26 3 -53 4t-53 2h-101v-268h100h66.5t52.5 1t45 3t44 5q-2 -20 -7.5 -39t-11.5 -28h-359v700h382zM126 943q17 5 35 5q20 0 27.5 -4t14.5 -14l101 -145
h-49z" />
    <glyph glyph-name="Eacute" unicode="&#xc9;" 
d="M463 700q-2 -16 -7 -33t-12 -33q-28 3 -47 4.5t-37 2.5t-39.5 1h-55.5h-114v-258h225q-3 -16 -7 -32.5t-11 -31.5q-26 3 -53 4t-53 2h-101v-268h100h66.5t52.5 1t45 3t44 5q-2 -20 -7.5 -39t-11.5 -28h-359v700h382zM334 923q8 2 18 2.5t18 0.5q41 0 17 -32l-86 -107h-52
z" />
    <glyph glyph-name="Ecircumflex" unicode="&#xca;" 
d="M463 700q-2 -16 -7 -33t-12 -33q-28 3 -47 4.5t-37 2.5t-39.5 1h-55.5h-114v-258h225q-3 -16 -7 -32.5t-11 -31.5q-26 3 -53 4t-53 2h-101v-268h100h66.5t52.5 1t45 3t44 5q-2 -20 -7.5 -39t-11.5 -28h-359v700h382zM410 788h-61l-72 93l-82 -93h-64l118 136q4 5 13 7.5
t20 2.5t16 -4t12 -13z" />
    <glyph glyph-name="Edieresis" unicode="&#xcb;" 
d="M463 700q-2 -16 -7 -33t-12 -33q-28 3 -47 4.5t-37 2.5t-39.5 1h-55.5h-114v-258h225q-3 -16 -7 -32.5t-11 -31.5q-26 3 -53 4t-53 2h-101v-268h100h66.5t52.5 1t45 3t44 5q-2 -20 -7.5 -39t-11.5 -28h-359v700h382zM162 871q8 4 16.5 4.5t15.5 0.5q24 0 33.5 -9.5
t9.5 -35.5q0 -11 -2 -23t-6 -19q-8 -2 -16 -2.5t-16 -0.5q-24 0 -33.5 9.5t-9.5 35.5q0 11 2 23t6 17zM321 871q8 4 16.5 4.5t15.5 0.5q24 0 33.5 -9.5t9.5 -35.5q0 -11 -2 -23t-6 -19q-7 -2 -15 -2.5t-16 -0.5q-24 0 -34 9.5t-10 35.5q0 11 2 23t6 17z" />
    <glyph glyph-name="Igrave" unicode="&#xcc;" horiz-adv-x="231" 
d="M80 701q7 2 15.5 3t14.5 1q22 0 31 -10.5t9 -39.5v-655h-70v701zM-34 943q17 5 35 5q20 0 27.5 -4t14.5 -14l101 -145h-49z" />
    <glyph glyph-name="Iacute" unicode="&#xcd;" horiz-adv-x="231" 
d="M80 701q7 2 15.5 3t14.5 1q22 0 31 -10.5t9 -39.5v-655h-70v701zM173 923q8 2 18 2.5t18 0.5q41 0 17 -32l-86 -107h-52z" />
    <glyph glyph-name="Icircumflex" unicode="&#xce;" horiz-adv-x="231" 
d="M80 701q7 2 15.5 3t14.5 1q22 0 31 -10.5t9 -39.5v-655h-70v701zM250 788h-61l-72 93l-82 -93h-64l118 136q4 5 13 7.5t20 2.5t16 -4t12 -13z" />
    <glyph glyph-name="Idieresis" unicode="&#xcf;" horiz-adv-x="231" 
d="M80 701q7 2 15.5 3t14.5 1q22 0 31 -10.5t9 -39.5v-655h-70v701zM2 871q8 4 16.5 4.5t15.5 0.5q24 0 33.5 -9.5t9.5 -35.5q0 -11 -2 -23t-6 -19q-8 -2 -16 -2.5t-16 -0.5q-24 0 -33.5 9.5t-9.5 35.5q0 11 2 23t6 17zM161 871q8 4 16.5 4.5t15.5 0.5q24 0 33.5 -9.5
t9.5 -35.5q0 -11 -2 -23t-6 -19q-7 -2 -15 -2.5t-16 -0.5q-24 0 -34 9.5t-10 35.5q0 11 2 23t6 17z" />
    <glyph glyph-name="Eth" unicode="&#xd0;" horiz-adv-x="731" 
d="M125 686q30 7 62.5 11.5t63.5 7.5t58 4t46 1q69 0 128 -14t102.5 -52t68.5 -105t25 -173q0 -68 -9 -122t-25 -96t-38 -74.5t-48 -56.5q-47 -16 -104.5 -21.5t-117.5 -5.5q-69 0 -120 5t-92 14v307h-86q-14 0 -20 6t-6 23q0 19 11 33h101v308zM355 650q-47 0 -89.5 -4.5
t-70.5 -11.5v-256h148q18 0 25 -6.5t7 -26.5q0 -11 -2.5 -17t-7.5 -12h-170v-255q28 -5 66.5 -8.5t82.5 -3.5q41 0 86 4.5t83 17.5q40 45 65 118t25 179q0 87 -19 142t-52 86t-78.5 42.5t-98.5 11.5z" />
    <glyph glyph-name="Ntilde" unicode="&#xd1;" horiz-adv-x="648" 
d="M81 701q17 4 49 4q23 0 39.5 -8.5t30.5 -33.5l284 -464q13 -22 21.5 -39.5t16.5 -37.5q-2 20 -2.5 41t-0.5 41v497q6 2 13.5 3t15.5 1q18 0 25.5 -8.5t7.5 -30.5v-670h-51l-326 538q-17 27 -33 57.5t-32 57.5q2 -21 3.5 -45t1.5 -45v-559h-64zM424 791q-19 -8 -40.5 -2.5
t-43.5 15.5t-43 19.5t-38 9.5q-5 -6 -10 -21t-6 -23l-38 8q5 20 11 39t17 37q17 7 38.5 1.5t43.5 -15.5t43.5 -19.5t38.5 -9.5q5 8 10.5 24t5.5 26l38 -7q-3 -22 -10 -42.5t-17 -39.5z" />
    <glyph glyph-name="Ograve" unicode="&#xd2;" horiz-adv-x="688" 
d="M335 -10q-72 0 -125.5 18t-89 60t-52.5 110.5t-17 169.5q0 55 8 106.5t21.5 95t32.5 77.5t41 53q50 21 99.5 25.5t99.5 4.5q72 0 125.5 -19t88.5 -62t52.5 -112t17.5 -169q0 -112 -28.5 -197.5t-74.5 -130.5q-49 -22 -99 -26t-100 -4zM201 630q-16 -16 -29.5 -46.5
t-24 -68.5t-16.5 -81.5t-6 -85.5q0 -84 12 -141.5t38 -92.5t65.5 -50t95.5 -15q17 0 37 0.5t40 2.5t39 6t35 12q16 19 30 49t24 67t16 78.5t6 83.5q0 83 -12 141t-38 94t-66 52t-95 16q-36 0 -78 -4.5t-73 -16.5zM202 943q17 5 35 5q20 0 27.5 -4t14.5 -14l101 -145h-49z
" />
    <glyph glyph-name="Oacute" unicode="&#xd3;" horiz-adv-x="688" 
d="M335 -10q-72 0 -125.5 18t-89 60t-52.5 110.5t-17 169.5q0 55 8 106.5t21.5 95t32.5 77.5t41 53q50 21 99.5 25.5t99.5 4.5q72 0 125.5 -19t88.5 -62t52.5 -112t17.5 -169q0 -112 -28.5 -197.5t-74.5 -130.5q-49 -22 -99 -26t-100 -4zM201 630q-16 -16 -29.5 -46.5
t-24 -68.5t-16.5 -81.5t-6 -85.5q0 -84 12 -141.5t38 -92.5t65.5 -50t95.5 -15q17 0 37 0.5t40 2.5t39 6t35 12q16 19 30 49t24 67t16 78.5t6 83.5q0 83 -12 141t-38 94t-66 52t-95 16q-36 0 -78 -4.5t-73 -16.5zM410 923q8 2 18 2.5t18 0.5q41 0 17 -32l-86 -107h-52z" />
    <glyph glyph-name="Ocircumflex" unicode="&#xd4;" horiz-adv-x="688" 
d="M335 -10q-72 0 -125.5 18t-89 60t-52.5 110.5t-17 169.5q0 55 8 106.5t21.5 95t32.5 77.5t41 53q50 21 99.5 25.5t99.5 4.5q72 0 125.5 -19t88.5 -62t52.5 -112t17.5 -169q0 -112 -28.5 -197.5t-74.5 -130.5q-49 -22 -99 -26t-100 -4zM201 630q-16 -16 -29.5 -46.5
t-24 -68.5t-16.5 -81.5t-6 -85.5q0 -84 12 -141.5t38 -92.5t65.5 -50t95.5 -15q17 0 37 0.5t40 2.5t39 6t35 12q16 19 30 49t24 67t16 78.5t6 83.5q0 83 -12 141t-38 94t-66 52t-95 16q-36 0 -78 -4.5t-73 -16.5zM487 788h-61l-72 93l-82 -93h-64l118 136q4 5 13 7.5t20 2.5
t16 -4t12 -13z" />
    <glyph glyph-name="Otilde" unicode="&#xd5;" horiz-adv-x="688" 
d="M335 -10q-72 0 -125.5 18t-89 60t-52.5 110.5t-17 169.5q0 55 8 106.5t21.5 95t32.5 77.5t41 53q50 21 99.5 25.5t99.5 4.5q72 0 125.5 -19t88.5 -62t52.5 -112t17.5 -169q0 -112 -28.5 -197.5t-74.5 -130.5q-49 -22 -99 -26t-100 -4zM201 630q-16 -16 -29.5 -46.5
t-24 -68.5t-16.5 -81.5t-6 -85.5q0 -84 12 -141.5t38 -92.5t65.5 -50t95.5 -15q17 0 37 0.5t40 2.5t39 6t35 12q16 19 30 49t24 67t16 78.5t6 83.5q0 83 -12 141t-38 94t-66 52t-95 16q-36 0 -78 -4.5t-73 -16.5zM452 791q-19 -8 -40.5 -2.5t-43.5 15.5t-43 19.5t-38 9.5
q-5 -6 -10 -21t-6 -23l-38 8q5 20 11 39t17 37q17 7 38.5 1.5t43.5 -15.5t43.5 -19.5t38.5 -9.5q5 8 10.5 24t5.5 26l38 -7q-3 -22 -10 -42.5t-17 -39.5z" />
    <glyph glyph-name="Odieresis" unicode="&#xd6;" horiz-adv-x="688" 
d="M335 -10q-72 0 -125.5 18t-89 60t-52.5 110.5t-17 169.5q0 55 8 106.5t21.5 95t32.5 77.5t41 53q50 21 99.5 25.5t99.5 4.5q72 0 125.5 -19t88.5 -62t52.5 -112t17.5 -169q0 -112 -28.5 -197.5t-74.5 -130.5q-49 -22 -99 -26t-100 -4zM201 630q-16 -16 -29.5 -46.5
t-24 -68.5t-16.5 -81.5t-6 -85.5q0 -84 12 -141.5t38 -92.5t65.5 -50t95.5 -15q17 0 37 0.5t40 2.5t39 6t35 12q16 19 30 49t24 67t16 78.5t6 83.5q0 83 -12 141t-38 94t-66 52t-95 16q-36 0 -78 -4.5t-73 -16.5zM239 871q8 4 16.5 4.5t15.5 0.5q24 0 33.5 -9.5t9.5 -35.5
q0 -11 -2 -23t-6 -19q-8 -2 -16 -2.5t-16 -0.5q-24 0 -33.5 9.5t-9.5 35.5q0 11 2 23t6 17zM398 871q8 4 16.5 4.5t15.5 0.5q24 0 33.5 -9.5t9.5 -35.5q0 -11 -2 -23t-6 -19q-7 -2 -15 -2.5t-16 -0.5q-24 0 -34 9.5t-10 35.5q0 11 2 23t6 17z" />
    <glyph glyph-name="multiply" unicode="&#xd7;" horiz-adv-x="414" 
d="M316 497q6 -2 12.5 -5t11.5 -8q12 -13 10.5 -24t-18.5 -28l-83 -80l84 -80q7 -7 14 -16t11 -17q-1 -6 -5.5 -13t-9.5 -12q-11 -11 -22.5 -8.5t-28.5 19.5l-87 84l-80 -77q-7 -7 -16 -14t-17 -12q-6 1 -13 5.5t-12 9.5q-11 11 -9 22.5t19 28.5l83 80l-74 72q-5 5 -13 14
t-13 18q2 7 5.5 13t8.5 11q12 12 23.5 10.5t28.5 -18.5l79 -77l11.5 11.5l13 13l20 20t33.5 32.5l15 12.5t18 12.5z" />
    <glyph glyph-name="Oslash" unicode="&#xd8;" horiz-adv-x="688" 
d="M335 -10q-33 0 -61.5 3.5t-54.5 10.5l-44 -89h-72l58 116q-56 38 -83 113.5t-27 203.5q0 55 8 106.5t21.5 95t32.5 77.5t41 53q50 21 99.5 25.5t99.5 4.5q40 0 74 -5.5t63 -18.5l49 98q9 4 17.5 5t19.5 1q34 0 22 -26l-55 -111q48 -41 71 -115t23 -190
q0 -112 -28.5 -197.5t-74.5 -130.5q-49 -22 -99 -26t-100 -4zM201 630q-16 -16 -29.5 -46.5t-24 -68.5t-16.5 -81.5t-6 -85.5q0 -99 16.5 -160t51.5 -94l268 534q-43 23 -109 23q-36 0 -78 -4.5t-73 -16.5zM563 348q0 86 -13 144.5t-40 94.5l-262 -526q37 -12 88 -12
q17 0 37 0.5t40 2.5t39 6t35 12q16 19 30 49t24 67t16 78.5t6 83.5z" />
    <glyph glyph-name="Ugrave" unicode="&#xd9;" horiz-adv-x="631" 
d="M310 -10q-61 0 -105 13t-73 43t-43 79.5t-14 122.5l1 454q7 2 15 2.5t15 0.5q20 0 29.5 -10.5t9.5 -39.5v-407q0 -56 10 -94.5t30.5 -61.5t53 -33t78.5 -10q28 0 63 3.5t62 17.5q10 13 18 32.5t13.5 43t9 49.5t3.5 52v1l1 454q7 2 15 2.5t15 0.5q20 0 29.5 -10.5
t9.5 -39.5v-408q-1 -78 -17.5 -137t-48.5 -93q-43 -19 -89.5 -23t-90.5 -4zM164 943q17 5 35 5q20 0 27.5 -4t14.5 -14l101 -145h-49z" />
    <glyph glyph-name="Uacute" unicode="&#xda;" horiz-adv-x="631" 
d="M310 -10q-61 0 -105 13t-73 43t-43 79.5t-14 122.5l1 454q7 2 15 2.5t15 0.5q20 0 29.5 -10.5t9.5 -39.5v-407q0 -56 10 -94.5t30.5 -61.5t53 -33t78.5 -10q28 0 63 3.5t62 17.5q10 13 18 32.5t13.5 43t9 49.5t3.5 52v1l1 454q7 2 15 2.5t15 0.5q20 0 29.5 -10.5
t9.5 -39.5v-408q-1 -78 -17.5 -137t-48.5 -93q-43 -19 -89.5 -23t-90.5 -4zM372 923q8 2 18 2.5t18 0.5q41 0 17 -32l-86 -107h-52z" />
    <glyph glyph-name="Ucircumflex" unicode="&#xdb;" horiz-adv-x="631" 
d="M310 -10q-61 0 -105 13t-73 43t-43 79.5t-14 122.5l1 454q7 2 15 2.5t15 0.5q20 0 29.5 -10.5t9.5 -39.5v-407q0 -56 10 -94.5t30.5 -61.5t53 -33t78.5 -10q28 0 63 3.5t62 17.5q10 13 18 32.5t13.5 43t9 49.5t3.5 52v1l1 454q7 2 15 2.5t15 0.5q20 0 29.5 -10.5
t9.5 -39.5v-408q-1 -78 -17.5 -137t-48.5 -93q-43 -19 -89.5 -23t-90.5 -4zM448 788h-61l-72 93l-82 -93h-64l118 136q4 5 13 7.5t20 2.5t16 -4t12 -13z" />
    <glyph glyph-name="Udieresis" unicode="&#xdc;" horiz-adv-x="631" 
d="M310 -10q-61 0 -105 13t-73 43t-43 79.5t-14 122.5l1 454q7 2 15 2.5t15 0.5q20 0 29.5 -10.5t9.5 -39.5v-407q0 -56 10 -94.5t30.5 -61.5t53 -33t78.5 -10q28 0 63 3.5t62 17.5q10 13 18 32.5t13.5 43t9 49.5t3.5 52v1l1 454q7 2 15 2.5t15 0.5q20 0 29.5 -10.5
t9.5 -39.5v-408q-1 -78 -17.5 -137t-48.5 -93q-43 -19 -89.5 -23t-90.5 -4zM200 871q8 4 16.5 4.5t15.5 0.5q24 0 33.5 -9.5t9.5 -35.5q0 -11 -2 -23t-6 -19q-8 -2 -16 -2.5t-16 -0.5q-24 0 -33.5 9.5t-9.5 35.5q0 11 2 23t6 17zM359 871q8 4 16.5 4.5t15.5 0.5
q24 0 33.5 -9.5t9.5 -35.5q0 -11 -2 -23t-6 -19q-7 -2 -15 -2.5t-16 -0.5q-24 0 -34 9.5t-10 35.5q0 11 2 23t6 17z" />
    <glyph glyph-name="Yacute" unicode="&#xdd;" horiz-adv-x="538" 
d="M233 0v281l-215 419q11 5 38 5q13 0 25 -4.5t19 -18.5l167 -329l180 346q8 4 18.5 5t20.5 1q20 0 25 -9.5t-4 -26.5l-204 -388v-281h-70zM327 923q8 2 18 2.5t18 0.5q41 0 17 -32l-86 -107h-52z" />
    <glyph glyph-name="Thorn" unicode="&#xde;" horiz-adv-x="523" 
d="M81 745q17 5 33 5q20 0 28 -9.5t8 -33.5v-223q44 37 82 51.5t80 14.5q50 0 83.5 -15.5t53 -45.5t27.5 -73.5t8 -98.5q0 -56 -5.5 -97.5t-14.5 -72.5t-20 -53.5t-21 -41.5q-38 -14 -74.5 -16.5t-60.5 -2.5q-39 0 -70.5 3.5t-67.5 14.5v-251h-69v945zM150 110
q29 -11 57 -14t63 -3t57.5 3t44.5 10q17 31 29 80.5t12 128.5q0 40 -4.5 72.5t-17.5 55t-36 35t-60 12.5q-35 0 -69 -13.5t-76 -51.5v-315z" />
    <glyph glyph-name="germandbls" unicode="&#xdf;" horiz-adv-x="593" 
d="M140 -145h-70v664q0 47 5.5 83.5t18.5 72.5q32 18 75.5 26.5t92.5 8.5q54 0 94.5 -9.5t66.5 -31.5t39 -57.5t13 -87.5q0 -41 -16.5 -75.5t-44.5 -66.5q66 -14 100 -55.5t34 -122.5q0 -63 -20.5 -112t-51.5 -75q-18 -5 -38 -8t-45.5 -5t-58.5 -3t-76 -1h-49q-1 9 -1.5 16
t-0.5 13q0 18 5 32h53q36 0 80 1.5t82 9.5q24 21 36.5 57t12.5 73q0 38 -12 63t-35 40t-56.5 21t-76.5 6h-82q-6 41 6 61h75q14 0 26.5 -0.5t24.5 -1.5q25 22 42.5 56.5t17.5 69.5q0 75 -35 103t-113 28q-36 0 -57 -3t-46 -11q-6 -27 -10 -53.5t-4 -64.5z" />
    <glyph glyph-name="agrave" unicode="&#xe0;" horiz-adv-x="484" 
d="M229 510q50 0 85 -8.5t56.5 -31t31 -63t9.5 -103.5v-91q0 -31 2.5 -62t8 -59t12.5 -52t16 -40h-69q-8 12 -16 36q-42 -24 -89.5 -33t-91.5 -9t-71.5 7t-43.5 22.5t-22 39.5t-6 59q0 38 6 72t14 56q50 9 101 12t117 3h64v39q0 45 -5 73.5t-19 45t-39 22.5t-65 6
q-41 0 -78.5 -4t-69.5 -11q1 6 3 15t4.5 18.5t5.5 18t6 12.5q15 3 35 5t40 3t38 1.5t30 0.5zM121 203q-3 -14 -7 -36t-4 -43q0 -20 3.5 -34t13.5 -23t28 -13t48 -4q35 0 75 6t75 26q-5 28 -7.5 61t-2.5 70h-64q-49 0 -85 -2.5t-73 -7.5zM92 745q17 5 35 5q20 0 27.5 -4
t14.5 -14l101 -145h-49z" />
    <glyph glyph-name="aacute" unicode="&#xe1;" horiz-adv-x="484" 
d="M229 510q50 0 85 -8.5t56.5 -31t31 -63t9.5 -103.5v-91q0 -31 2.5 -62t8 -59t12.5 -52t16 -40h-69q-8 12 -16 36q-42 -24 -89.5 -33t-91.5 -9t-71.5 7t-43.5 22.5t-22 39.5t-6 59q0 38 6 72t14 56q50 9 101 12t117 3h64v39q0 45 -5 73.5t-19 45t-39 22.5t-65 6
q-41 0 -78.5 -4t-69.5 -11q1 6 3 15t4.5 18.5t5.5 18t6 12.5q15 3 35 5t40 3t38 1.5t30 0.5zM121 203q-3 -14 -7 -36t-4 -43q0 -20 3.5 -34t13.5 -23t28 -13t48 -4q35 0 75 6t75 26q-5 28 -7.5 61t-2.5 70h-64q-49 0 -85 -2.5t-73 -7.5zM300 725q8 2 18 2.5t18 0.5
q41 0 17 -32l-86 -107h-52z" />
    <glyph glyph-name="acircumflex" unicode="&#xe2;" horiz-adv-x="484" 
d="M229 510q50 0 85 -8.5t56.5 -31t31 -63t9.5 -103.5v-91q0 -31 2.5 -62t8 -59t12.5 -52t16 -40h-69q-8 12 -16 36q-42 -24 -89.5 -33t-91.5 -9t-71.5 7t-43.5 22.5t-22 39.5t-6 59q0 38 6 72t14 56q50 9 101 12t117 3h64v39q0 45 -5 73.5t-19 45t-39 22.5t-65 6
q-41 0 -78.5 -4t-69.5 -11q1 6 3 15t4.5 18.5t5.5 18t6 12.5q15 3 35 5t40 3t38 1.5t30 0.5zM121 203q-3 -14 -7 -36t-4 -43q0 -20 3.5 -34t13.5 -23t28 -13t48 -4q35 0 75 6t75 26q-5 28 -7.5 61t-2.5 70h-64q-49 0 -85 -2.5t-73 -7.5zM376 591h-61l-72 93l-82 -93h-64
l118 136q4 5 13 7.5t20 2.5t16 -4t12 -13z" />
    <glyph glyph-name="atilde" unicode="&#xe3;" horiz-adv-x="484" 
d="M229 510q50 0 85 -8.5t56.5 -31t31 -63t9.5 -103.5v-91q0 -31 2.5 -62t8 -59t12.5 -52t16 -40h-69q-8 12 -16 36q-42 -24 -89.5 -33t-91.5 -9t-71.5 7t-43.5 22.5t-22 39.5t-6 59q0 38 6 72t14 56q50 9 101 12t117 3h64v39q0 45 -5 73.5t-19 45t-39 22.5t-65 6
q-41 0 -78.5 -4t-69.5 -11q1 6 3 15t4.5 18.5t5.5 18t6 12.5q15 3 35 5t40 3t38 1.5t30 0.5zM121 203q-3 -14 -7 -36t-4 -43q0 -20 3.5 -34t13.5 -23t28 -13t48 -4q35 0 75 6t75 26q-5 28 -7.5 61t-2.5 70h-64q-49 0 -85 -2.5t-73 -7.5zM342 593q-19 -8 -40.5 -2.5
t-43.5 15.5t-43 19.5t-38 9.5q-5 -6 -10 -21t-6 -23l-38 8q5 20 11 39t17 37q17 7 38.5 1.5t43.5 -15.5t43.5 -19.5t38.5 -9.5q5 8 10.5 24t5.5 26l38 -7q-3 -22 -10 -42.5t-17 -39.5z" />
    <glyph glyph-name="adieresis" unicode="&#xe4;" horiz-adv-x="484" 
d="M229 510q50 0 85 -8.5t56.5 -31t31 -63t9.5 -103.5v-91q0 -31 2.5 -62t8 -59t12.5 -52t16 -40h-69q-8 12 -16 36q-42 -24 -89.5 -33t-91.5 -9t-71.5 7t-43.5 22.5t-22 39.5t-6 59q0 38 6 72t14 56q50 9 101 12t117 3h64v39q0 45 -5 73.5t-19 45t-39 22.5t-65 6
q-41 0 -78.5 -4t-69.5 -11q1 6 3 15t4.5 18.5t5.5 18t6 12.5q15 3 35 5t40 3t38 1.5t30 0.5zM121 203q-3 -14 -7 -36t-4 -43q0 -20 3.5 -34t13.5 -23t28 -13t48 -4q35 0 75 6t75 26q-5 28 -7.5 61t-2.5 70h-64q-49 0 -85 -2.5t-73 -7.5zM128 673q8 4 16.5 4.5t15.5 0.5
q24 0 33.5 -9.5t9.5 -35.5q0 -11 -2 -23t-6 -19q-8 -2 -16 -2.5t-16 -0.5q-24 0 -33.5 9.5t-9.5 35.5q0 11 2 23t6 17zM287 673q8 4 16.5 4.5t15.5 0.5q24 0 33.5 -9.5t9.5 -35.5q0 -11 -2 -23t-6 -19q-7 -2 -15 -2.5t-16 -0.5q-24 0 -34 9.5t-10 35.5q0 11 2 23t6 17z" />
    <glyph glyph-name="aring" unicode="&#xe5;" horiz-adv-x="484" 
d="M229 510q50 0 85 -8.5t56.5 -31t31 -63t9.5 -103.5v-91q0 -31 2.5 -62t8 -59t12.5 -52t16 -40h-69q-8 12 -16 36q-42 -24 -89.5 -33t-91.5 -9t-71.5 7t-43.5 22.5t-22 39.5t-6 59q0 38 6 72t14 56q50 9 101 12t117 3h64v39q0 45 -5 73.5t-19 45t-39 22.5t-65 6
q-41 0 -78.5 -4t-69.5 -11q1 6 3 15t4.5 18.5t5.5 18t6 12.5q15 3 35 5t40 3t38 1.5t30 0.5zM121 203q-3 -14 -7 -36t-4 -43q0 -20 3.5 -34t13.5 -23t28 -13t48 -4q35 0 75 6t75 26q-5 28 -7.5 61t-2.5 70h-64q-49 0 -85 -2.5t-73 -7.5zM239 583q-54 0 -80 19.5t-26 70.5
q0 26 7 49.5t21 31.5q21 7 43 8t43 1q55 0 81 -19.5t26 -70.5q0 -28 -7 -50t-21 -31q-20 -7 -43 -8t-44 -1zM194 720q-6 -7 -9.5 -21t-3.5 -26q0 -27 13.5 -38.5t47.5 -11.5q11 0 25 0.5t25 3.5q6 6 10 19.5t4 26.5q0 26 -13.5 38.5t-48.5 12.5q-11 0 -25 -0.5t-25 -3.5z
" />
    <glyph glyph-name="ae" unicode="&#xe6;" horiz-adv-x="796" 
d="M573 507q45 0 77.5 -6t53.5 -21.5t31.5 -42t10.5 -67.5q0 -39 -6 -72t-17 -56q-35 -8 -75 -11.5t-88 -3.5q-39 0 -75 0.5t-68 4.5q1 -52 8 -87t25 -56.5t49 -30.5t78 -9q50 0 89 9t81 26q-2 -16 -4.5 -34.5t-7.5 -30.5q-33 -14 -80 -21.5t-94 -7.5q-57 0 -97.5 12
t-66.5 41q-49 -29 -103 -39t-108 -10q-44 0 -72 7t-44.5 22.5t-22.5 40t-6 58.5q0 42 5 72t15 56q42 9 82 12t94 3q26 0 54 -1t57 -2v9.5t1 9.5v23q0 45 -5 73.5t-19 45t-39.5 22.5t-67.5 6q-39 0 -75.5 -4t-67.5 -11q1 6 3 15t4.5 18.5t5.5 18t5 12.5q15 3 34.5 5t39 3
t37 1.5t28.5 0.5q61 0 100 -12.5t59 -47.5q11 20 26 37q16 6 36 9.5t40.5 6t41 3.5t38.5 1zM668 294q5 11 8.5 32.5t3.5 42.5q0 48 -26 64.5t-82 16.5q-70 0 -109 -15q-17 -24 -29.5 -65.5t-14.5 -81.5q25 -3 58 -4t74 -1q34 0 67.5 3t49.5 8zM122 203q-5 -20 -8 -36.5
t-3 -42.5q0 -20 3.5 -34t14 -23t29.5 -13t51 -4q35 0 79 7t83 30q-19 45 -22 123q-20 2 -45.5 2.5t-51.5 0.5q-42 0 -70.5 -2.5t-59.5 -7.5z" />
    <glyph glyph-name="ccedilla" unicode="&#xe7;" horiz-adv-x="448" 
d="M236 -5q-96 5 -142 62t-46 175q0 98 29.5 166t77.5 103q30 5 64.5 7t57.5 2q30 0 67 -2t65 -7q-2 -14 -6.5 -31t-11.5 -31q-24 5 -53 8.5t-60 3.5q-44 0 -87 -6q-33 -33 -52.5 -87t-19.5 -126q0 -98 39.5 -139.5t116.5 -41.5q35 0 71 7.5t70 24.5q0 -13 -3 -32t-8 -30
q-59 -24 -127 -27l-1 -48q27 -6 45.5 -11.5t29 -14t15 -22t4.5 -34.5t-5 -40t-14 -32q-22 -6 -42.5 -7t-41.5 -1q-49 0 -85 6l2 38q17 -2 34 -3.5t38 -1.5q17 0 32 1t27 3q4 8 6.5 18.5t2.5 20.5q0 12 -4 19t-13.5 12.5t-27 9.5t-44.5 10v78z" />
    <glyph glyph-name="egrave" unicode="&#xe8;" 
d="M275 510q45 0 77.5 -6t53.5 -21.5t31.5 -42t10.5 -67.5q0 -39 -6 -72t-17 -56q-35 -8 -75 -11.5t-88 -3.5q-39 0 -75 0.5t-68 4.5q1 -52 8 -87t25 -56.5t49 -30.5t78 -9q50 0 89 9t81 26q-2 -16 -4.5 -34.5t-7.5 -30.5q-33 -14 -80 -21.5t-94 -7.5q-57 0 -97.5 12t-66 42
t-37.5 80t-12 126q0 40 5.5 76.5t15 67t22 54.5t26.5 39q16 6 36 9.5t40.5 6t41 3.5t38.5 1zM370 297q5 11 8.5 32.5t3.5 42.5q0 48 -26 64.5t-82 16.5q-70 0 -109 -15q-17 -24 -29.5 -65.5t-14.5 -81.5q25 -3 58 -4t74 -1q34 0 67.5 3t49.5 8zM116 745q17 5 35 5
q20 0 27.5 -4t14.5 -14l101 -145h-49z" />
    <glyph glyph-name="eacute" unicode="&#xe9;" 
d="M275 510q45 0 77.5 -6t53.5 -21.5t31.5 -42t10.5 -67.5q0 -39 -6 -72t-17 -56q-35 -8 -75 -11.5t-88 -3.5q-39 0 -75 0.5t-68 4.5q1 -52 8 -87t25 -56.5t49 -30.5t78 -9q50 0 89 9t81 26q-2 -16 -4.5 -34.5t-7.5 -30.5q-33 -14 -80 -21.5t-94 -7.5q-57 0 -97.5 12t-66 42
t-37.5 80t-12 126q0 40 5.5 76.5t15 67t22 54.5t26.5 39q16 6 36 9.5t40.5 6t41 3.5t38.5 1zM370 297q5 11 8.5 32.5t3.5 42.5q0 48 -26 64.5t-82 16.5q-70 0 -109 -15q-17 -24 -29.5 -65.5t-14.5 -81.5q25 -3 58 -4t74 -1q34 0 67.5 3t49.5 8zM323 725q8 2 18 2.5t18 0.5
q41 0 17 -32l-86 -107h-52z" />
    <glyph glyph-name="ecircumflex" unicode="&#xea;" 
d="M275 510q45 0 77.5 -6t53.5 -21.5t31.5 -42t10.5 -67.5q0 -39 -6 -72t-17 -56q-35 -8 -75 -11.5t-88 -3.5q-39 0 -75 0.5t-68 4.5q1 -52 8 -87t25 -56.5t49 -30.5t78 -9q50 0 89 9t81 26q-2 -16 -4.5 -34.5t-7.5 -30.5q-33 -14 -80 -21.5t-94 -7.5q-57 0 -97.5 12t-66 42
t-37.5 80t-12 126q0 40 5.5 76.5t15 67t22 54.5t26.5 39q16 6 36 9.5t40.5 6t41 3.5t38.5 1zM370 297q5 11 8.5 32.5t3.5 42.5q0 48 -26 64.5t-82 16.5q-70 0 -109 -15q-17 -24 -29.5 -65.5t-14.5 -81.5q25 -3 58 -4t74 -1q34 0 67.5 3t49.5 8zM400 591h-61l-72 93l-82 -93
h-64l118 136q4 5 13 7.5t20 2.5t16 -4t12 -13z" />
    <glyph glyph-name="edieresis" unicode="&#xeb;" 
d="M275 510q45 0 77.5 -6t53.5 -21.5t31.5 -42t10.5 -67.5q0 -39 -6 -72t-17 -56q-35 -8 -75 -11.5t-88 -3.5q-39 0 -75 0.5t-68 4.5q1 -52 8 -87t25 -56.5t49 -30.5t78 -9q50 0 89 9t81 26q-2 -16 -4.5 -34.5t-7.5 -30.5q-33 -14 -80 -21.5t-94 -7.5q-57 0 -97.5 12t-66 42
t-37.5 80t-12 126q0 40 5.5 76.5t15 67t22 54.5t26.5 39q16 6 36 9.5t40.5 6t41 3.5t38.5 1zM370 297q5 11 8.5 32.5t3.5 42.5q0 48 -26 64.5t-82 16.5q-70 0 -109 -15q-17 -24 -29.5 -65.5t-14.5 -81.5q25 -3 58 -4t74 -1q34 0 67.5 3t49.5 8zM152 673q8 4 16.5 4.5
t15.5 0.5q24 0 33.5 -9.5t9.5 -35.5q0 -11 -2 -23t-6 -19q-8 -2 -16 -2.5t-16 -0.5q-24 0 -33.5 9.5t-9.5 35.5q0 11 2 23t6 17zM311 673q8 4 16.5 4.5t15.5 0.5q24 0 33.5 -9.5t9.5 -35.5q0 -11 -2 -23t-6 -19q-7 -2 -15 -2.5t-16 -0.5q-24 0 -34 9.5t-10 35.5q0 11 2 23
t6 17z" />
    <glyph glyph-name="igrave" unicode="&#xec;" horiz-adv-x="213" 
d="M72 496q8 2 16.5 3t16.5 1q20 0 28 -9t8 -31v-460h-69v496zM-44 745q17 5 35 5q20 0 27.5 -4t14.5 -14l101 -145h-49z" />
    <glyph glyph-name="iacute" unicode="&#xed;" horiz-adv-x="213" 
d="M72 496q8 2 16.5 3t16.5 1q20 0 28 -9t8 -31v-460h-69v496zM164 725q8 2 18 2.5t18 0.5q41 0 17 -32l-86 -107h-52z" />
    <glyph glyph-name="icircumflex" unicode="&#xee;" horiz-adv-x="213" 
d="M72 496q8 2 16.5 3t16.5 1q20 0 28 -9t8 -31v-460h-69v496zM240 591h-61l-72 93l-82 -93h-64l118 136q4 5 13 7.5t20 2.5t16 -4t12 -13z" />
    <glyph glyph-name="idieresis" unicode="&#xef;" horiz-adv-x="213" 
d="M72 496q8 2 16.5 3t16.5 1q20 0 28 -9t8 -31v-460h-69v496zM-8 673q8 4 16.5 4.5t15.5 0.5q24 0 33.5 -9.5t9.5 -35.5q0 -11 -2 -23t-6 -19q-8 -2 -16 -2.5t-16 -0.5q-24 0 -33.5 9.5t-9.5 35.5q0 11 2 23t6 17zM151 673q8 4 16.5 4.5t15.5 0.5q24 0 33.5 -9.5t9.5 -35.5
q0 -11 -2 -23t-6 -19q-7 -2 -15 -2.5t-16 -0.5q-24 0 -34 9.5t-10 35.5q0 11 2 23t6 17z" />
    <glyph glyph-name="eth" unicode="&#xf0;" horiz-adv-x="525" 
d="M149 555l113 41q-29 22 -62.5 42.5t-72.5 43.5q6 10 18 16l20 10q13 6 32 1q38 -23 71 -44.5t60 -43.5l88 32l32 -52l-72 -27q25 -28 43.5 -60.5t30 -72.5t17.5 -89t6 -109q0 -5 0.5 -10t0.5 -10q0 -65 -12.5 -109.5t-37.5 -71.5t-63 -39t-90 -12q-39 0 -78.5 2.5
t-78.5 17.5q-29 29 -46 84.5t-19 127.5q0 62 12.5 104.5t37.5 68.5t63 37.5t89 11.5q32 0 64.5 -1.5t65.5 -9.5q-12 36 -28.5 64.5t-39.5 52.5l-139 -51zM404 223q0 42 -9 84t-25 64q-26 10 -57 12t-57 2q-37 0 -63 -8.5t-42.5 -27.5t-24.5 -50t-8 -76q0 -48 11 -90t32 -67
q10 -5 23 -8t27 -4.5t27.5 -2t24.5 -0.5q37 0 64 8t44 27.5t25 53t8 83.5z" />
    <glyph glyph-name="ntilde" unicode="&#xf1;" horiz-adv-x="527" 
d="M70 496q8 2 16.5 3t16.5 1q20 0 28 -9t8 -31v-23q45 43 89.5 58t84.5 15q38 0 66 -9t46 -29.5t27 -55t9 -85.5v-331h-68v327q0 68 -23.5 96.5t-78.5 28.5q-36 0 -76 -17.5t-76 -59.5v-375h-69v496zM368 632q-19 -8 -40.5 -2.5t-43.5 15.5t-43 19.5t-38 9.5q-5 -6 -10 -21
t-6 -23l-38 8q5 20 11 39t17 37q17 7 38.5 1.5t43.5 -15.5t43.5 -19.5t38.5 -9.5q5 8 10.5 24t5.5 26l38 -7q-3 -22 -10 -42.5t-17 -39.5z" />
    <glyph glyph-name="ograve" unicode="&#xf2;" horiz-adv-x="533" 
d="M251 -9q-51 0 -89 13t-63 43t-37.5 79.5t-12.5 123.5q0 37 4.5 73t13.5 67.5t22 57.5t29 42q40 14 81.5 17t81.5 3q52 0 90 -13t63 -43.5t37.5 -80.5t12.5 -123q0 -36 -5 -72t-14 -67.5t-21.5 -57.5t-28.5 -42q-40 -14 -81.5 -17t-82.5 -3zM164 439q-21 -28 -33.5 -80
t-12.5 -109q0 -56 7.5 -95t24 -63t43 -34.5t63.5 -10.5q25 0 57.5 2.5t55.5 11.5q21 29 33 81t13 108q0 57 -7.5 96t-24.5 63t-43.5 34.5t-63.5 10.5q-25 0 -57 -2.5t-55 -12.5zM117 784q17 5 35 5q20 0 27.5 -4t14.5 -14l101 -145h-49z" />
    <glyph glyph-name="oacute" unicode="&#xf3;" horiz-adv-x="533" 
d="M251 -9q-51 0 -89 13t-63 43t-37.5 79.5t-12.5 123.5q0 37 4.5 73t13.5 67.5t22 57.5t29 42q40 14 81.5 17t81.5 3q52 0 90 -13t63 -43.5t37.5 -80.5t12.5 -123q0 -36 -5 -72t-14 -67.5t-21.5 -57.5t-28.5 -42q-40 -14 -81.5 -17t-82.5 -3zM164 439q-21 -28 -33.5 -80
t-12.5 -109q0 -56 7.5 -95t24 -63t43 -34.5t63.5 -10.5q25 0 57.5 2.5t55.5 11.5q21 29 33 81t13 108q0 57 -7.5 96t-24.5 63t-43.5 34.5t-63.5 10.5q-25 0 -57 -2.5t-55 -12.5zM325 764q8 2 18 2.5t18 0.5q41 0 17 -32l-86 -107h-52z" />
    <glyph glyph-name="ocircumflex" unicode="&#xf4;" horiz-adv-x="533" 
d="M251 -9q-51 0 -89 13t-63 43t-37.5 79.5t-12.5 123.5q0 37 4.5 73t13.5 67.5t22 57.5t29 42q40 14 81.5 17t81.5 3q52 0 90 -13t63 -43.5t37.5 -80.5t12.5 -123q0 -36 -5 -72t-14 -67.5t-21.5 -57.5t-28.5 -42q-40 -14 -81.5 -17t-82.5 -3zM164 439q-21 -28 -33.5 -80
t-12.5 -109q0 -56 7.5 -95t24 -63t43 -34.5t63.5 -10.5q25 0 57.5 2.5t55.5 11.5q21 29 33 81t13 108q0 57 -7.5 96t-24.5 63t-43.5 34.5t-63.5 10.5q-25 0 -57 -2.5t-55 -12.5zM401 630h-61l-72 93l-82 -93h-64l118 136q4 5 13 7.5t20 2.5t16 -4t12 -13z" />
    <glyph glyph-name="otilde" unicode="&#xf5;" horiz-adv-x="533" 
d="M251 -9q-51 0 -89 13t-63 43t-37.5 79.5t-12.5 123.5q0 37 4.5 73t13.5 67.5t22 57.5t29 42q40 14 81.5 17t81.5 3q52 0 90 -13t63 -43.5t37.5 -80.5t12.5 -123q0 -36 -5 -72t-14 -67.5t-21.5 -57.5t-28.5 -42q-40 -14 -81.5 -17t-82.5 -3zM164 439q-21 -28 -33.5 -80
t-12.5 -109q0 -56 7.5 -95t24 -63t43 -34.5t63.5 -10.5q25 0 57.5 2.5t55.5 11.5q21 29 33 81t13 108q0 57 -7.5 96t-24.5 63t-43.5 34.5t-63.5 10.5q-25 0 -57 -2.5t-55 -12.5zM366 632q-19 -8 -40.5 -2.5t-43.5 15.5t-43 19.5t-38 9.5q-5 -6 -10 -21t-6 -23l-38 8
q5 20 11 39t17 37q17 7 38.5 1.5t43.5 -15.5t43.5 -19.5t38.5 -9.5q5 8 10.5 24t5.5 26l38 -7q-3 -22 -10 -42.5t-17 -39.5z" />
    <glyph glyph-name="odieresis" unicode="&#xf6;" horiz-adv-x="533" 
d="M251 -9q-51 0 -89 13t-63 43t-37.5 79.5t-12.5 123.5q0 37 4.5 73t13.5 67.5t22 57.5t29 42q40 14 81.5 17t81.5 3q52 0 90 -13t63 -43.5t37.5 -80.5t12.5 -123q0 -36 -5 -72t-14 -67.5t-21.5 -57.5t-28.5 -42q-40 -14 -81.5 -17t-82.5 -3zM164 439q-21 -28 -33.5 -80
t-12.5 -109q0 -56 7.5 -95t24 -63t43 -34.5t63.5 -10.5q25 0 57.5 2.5t55.5 11.5q21 29 33 81t13 108q0 57 -7.5 96t-24.5 63t-43.5 34.5t-63.5 10.5q-25 0 -57 -2.5t-55 -12.5zM153 712q8 4 16.5 4.5t15.5 0.5q24 0 33.5 -9.5t9.5 -35.5q0 -11 -2 -23t-6 -19
q-8 -2 -16 -2.5t-16 -0.5q-24 0 -33.5 9.5t-9.5 35.5q0 11 2 23t6 17zM312 712q8 4 16.5 4.5t15.5 0.5q24 0 33.5 -9.5t9.5 -35.5q0 -11 -2 -23t-6 -19q-7 -2 -15 -2.5t-16 -0.5q-24 0 -34 9.5t-10 35.5q0 11 2 23t6 17z" />
    <glyph glyph-name="divide" unicode="&#xf7;" horiz-adv-x="579" 
d="M490 381q17 0 24.5 -6t7.5 -26q0 -11 -2.5 -17t-7.5 -12h-430q-14 0 -19.5 6t-5.5 23q0 8 2.5 17t7.5 15h423zM242 539q8 4 16.5 4.5t15.5 0.5q24 0 34 -9.5t10 -35.5q0 -11 -2.5 -23t-5.5 -19q-8 -2 -16 -2.5t-16 -0.5q-24 0 -34 9.5t-10 35.5q0 11 2 23t6 17zM242 242
q8 4 16.5 4.5t15.5 0.5q24 0 34 -9.5t10 -35.5q0 -11 -2.5 -23t-5.5 -19q-8 -2 -16 -2.5t-16 -0.5q-24 0 -34 9.5t-10 35.5q0 11 2 23t6 17z" />
    <glyph glyph-name="oslash" unicode="&#xf8;" horiz-adv-x="533" 
d="M117 28q-34 29 -50.5 83t-16.5 141q0 37 4.5 73t13.5 68t22 58t29 43q40 14 81.5 17t81.5 3q42 0 75 -9l45 90q9 3 17 4.5t19 1.5q14 0 20.5 -7t-0.5 -19l-47 -95q37 -28 55 -82.5t19 -145.5q0 -37 -5 -73t-14 -68t-21.5 -58.5t-28.5 -42.5q-40 -14 -81.5 -17t-82.5 -3
q-47 0 -80 10l-37 -74h-69zM416 252q0 60 -8.5 100t-28.5 63l-178 -357q12 -5 25.5 -6.5t30.5 -1.5q12 0 27 0.5t30 2t29.5 4t26.5 7.5q21 29 33 80.5t13 107.5zM165 440q-21 -29 -33.5 -80.5t-12.5 -107.5q0 -110 32 -157l177 353q-23 6 -51 6q-25 0 -57 -2t-55 -12z" />
    <glyph glyph-name="ugrave" unicode="&#xf9;" horiz-adv-x="523" 
d="M66 496q8 2 16.5 3t16.5 1q20 0 27.5 -9t7.5 -31v-284q0 -67 24 -95.5t78 -28.5q35 0 74 17t75 55v372q8 2 16.5 3t16.5 1q20 0 27.5 -9t7.5 -31v-460h-58l-8 66q-45 -43 -89.5 -57.5t-83.5 -14.5q-38 0 -66 9t-46 29.5t-27 55t-9 85.5v323zM110 741q17 5 35 5
q20 0 27.5 -4t14.5 -14l101 -145h-49z" />
    <glyph glyph-name="uacute" unicode="&#xfa;" horiz-adv-x="523" 
d="M66 496q8 2 16.5 3t16.5 1q20 0 27.5 -9t7.5 -31v-284q0 -67 24 -95.5t78 -28.5q35 0 74 17t75 55v372q8 2 16.5 3t16.5 1q20 0 27.5 -9t7.5 -31v-460h-58l-8 66q-45 -43 -89.5 -57.5t-83.5 -14.5q-38 0 -66 9t-46 29.5t-27 55t-9 85.5v323zM317 721q8 2 18 2.5t18 0.5
q41 0 17 -32l-86 -107h-52z" />
    <glyph glyph-name="ucircumflex" unicode="&#xfb;" horiz-adv-x="523" 
d="M66 496q8 2 16.5 3t16.5 1q20 0 27.5 -9t7.5 -31v-284q0 -67 24 -95.5t78 -28.5q35 0 74 17t75 55v372q8 2 16.5 3t16.5 1q20 0 27.5 -9t7.5 -31v-460h-58l-8 66q-45 -43 -89.5 -57.5t-83.5 -14.5q-38 0 -66 9t-46 29.5t-27 55t-9 85.5v323zM394 586h-61l-72 93l-82 -93
h-64l118 136q4 5 13 7.5t20 2.5t16 -4t12 -13z" />
    <glyph glyph-name="udieresis" unicode="&#xfc;" horiz-adv-x="523" 
d="M66 496q8 2 16.5 3t16.5 1q20 0 27.5 -9t7.5 -31v-284q0 -67 24 -95.5t78 -28.5q35 0 74 17t75 55v372q8 2 16.5 3t16.5 1q20 0 27.5 -9t7.5 -31v-460h-58l-8 66q-45 -43 -89.5 -57.5t-83.5 -14.5q-38 0 -66 9t-46 29.5t-27 55t-9 85.5v323zM146 669q8 4 16.5 4.5
t15.5 0.5q24 0 33.5 -9.5t9.5 -35.5q0 -11 -2 -23t-6 -19q-8 -2 -16 -2.5t-16 -0.5q-24 0 -33.5 9.5t-9.5 35.5q0 11 2 23t6 17zM305 669q8 4 16.5 4.5t15.5 0.5q24 0 33.5 -9.5t9.5 -35.5q0 -11 -2 -23t-6 -19q-7 -2 -15 -2.5t-16 -0.5q-24 0 -34 9.5t-10 35.5q0 11 2 23
t6 17z" />
    <glyph glyph-name="yacute" unicode="&#xfd;" horiz-adv-x="458" 
d="M229 55l147 442q6 1 14.5 2t15.5 1q25 0 28.5 -9t1.5 -24l-142 -412q-29 -83 -62 -154t-61 -111q-27 -5 -54 -6q-8 -1 -15 -1h-14q-17 0 -33.5 1.5t-36.5 5.5q-13 24 -13 52q18 -3 33.5 -4t35.5 -1q14 0 29 1t26 4q14 23 36 64t44 94h-27l-164 497q8 2 16.5 2.5t15.5 0.5
q13 0 21 -2.5t13 -8.5t8 -15t7 -22l130 -393v-4zM288 725q8 2 18 2.5t18 0.5q41 0 17 -32l-86 -107h-52z" />
    <glyph glyph-name="thorn" unicode="&#xfe;" horiz-adv-x="516" 
d="M70 721q17 5 33 5q20 0 28 -9.5t8 -33.5v-239q43 37 81.5 51.5t80.5 14.5q50 0 83.5 -15.5t53 -45.5t27.5 -73.5t8 -98.5q0 -56 -5.5 -97.5t-14 -72.5t-19.5 -53.5t-22 -41.5q-38 -14 -74.5 -16.5t-59.5 -2.5q-40 0 -71.5 3.5t-67.5 14.5v-211h-69v921zM284 450
q-35 0 -69 -14t-76 -52v-314q29 -11 57 -14t63 -3t57.5 3t44.5 10q17 31 29 80.5t12 128.5q0 40 -4.5 72.5t-17.5 55t-36 35t-60 12.5z" />
    <glyph glyph-name="ydieresis" unicode="&#xff;" horiz-adv-x="458" 
d="M229 55l147 442q6 1 14.5 2t15.5 1q25 0 28.5 -9t1.5 -24l-142 -412q-29 -83 -62 -154t-61 -111q-27 -5 -54 -6q-8 -1 -15 -1h-14q-17 0 -33.5 1.5t-36.5 5.5q-13 24 -13 52q18 -3 33.5 -4t35.5 -1q14 0 29 1t26 4q14 23 36 64t44 94h-27l-164 497q8 2 16.5 2.5t15.5 0.5
q13 0 21 -2.5t13 -8.5t8 -15t7 -22l130 -393v-4zM116 673q8 4 16.5 4.5t15.5 0.5q24 0 33.5 -9.5t9.5 -35.5q0 -11 -2 -23t-6 -19q-8 -2 -16 -2.5t-16 -0.5q-24 0 -33.5 9.5t-9.5 35.5q0 11 2 23t6 17zM275 673q8 4 16.5 4.5t15.5 0.5q24 0 33.5 -9.5t9.5 -35.5
q0 -11 -2 -23t-6 -19q-7 -2 -15 -2.5t-16 -0.5q-24 0 -34 9.5t-10 35.5q0 11 2 23t6 17z" />
    <glyph glyph-name="OE" unicode="&#x152;" horiz-adv-x="922" 
d="M371 709q35 0 66.5 -1.5t60.5 -6.5h62v-1h336q-2 -17 -5 -34.5t-8 -34.5q-30 2 -53 3.5t-46 2t-50 1t-64 0.5h-110v-254h240q-3 -30 -14 -62h-226v-260h110q36 0 62.5 0.5t48.5 1.5t41.5 3t41.5 6q-2 -20 -6.5 -41.5t-9.5 -31.5h-350q-38 -3 -77.5 -6.5t-76.5 -3.5
q-75 0 -130 18t-91 60t-53.5 110.5t-17.5 169.5q0 56 8.5 108.5t23.5 96.5t35.5 78.5t44.5 54.5q49 14 101.5 18.5t105.5 4.5zM210 632q-20 -21 -35 -52.5t-25.5 -69t-16 -79t-5.5 -83.5q0 -86 12.5 -143.5t39.5 -92t69.5 -49t101.5 -14.5q31 0 65.5 2.5t66.5 10.5h1
q2 0 3 0.5t3 0.5v565q-23 12 -53.5 17t-72.5 5q-36 0 -77.5 -3t-76.5 -15z" />
    <glyph glyph-name="oe" unicode="&#x153;" horiz-adv-x="866" 
d="M643 510q45 0 77.5 -6t53.5 -21.5t31.5 -42t10.5 -67.5q0 -39 -6 -72t-17 -56q-35 -8 -75 -11.5t-88 -3.5q-39 0 -75 0.5t-68 4.5q1 -52 8 -87t25 -56.5t49 -30.5t78 -9q50 0 89 9t81 26q-2 -16 -4.5 -34.5t-7.5 -30.5q-33 -14 -80 -21.5t-94 -7.5q-68 0 -112 17t-68 60
q-15 -38 -36 -59q-40 -14 -81.5 -17t-82.5 -3q-51 0 -89 13t-63 43.5t-37.5 81t-12.5 124.5q0 37 4.5 73t13.5 68t22 58t29 43q40 14 81.5 17t81.5 3q62 0 104 -19t66 -64q17 38 36 58q16 6 36 9.5t40.5 6t41 3.5t38.5 1zM164 441q-21 -29 -33.5 -80.5t-12.5 -107.5
t7.5 -94.5t24 -62.5t43 -34.5t63.5 -10.5q12 0 27 0.5t30 2t29.5 4t26.5 7.5q21 29 33 80.5t13 107.5q0 56 -7.5 94.5t-24.5 62.5t-43.5 34.5t-63.5 10.5q-25 0 -57 -2t-55 -12zM738 297q5 11 8.5 32.5t3.5 42.5q0 48 -26 64.5t-82 16.5q-70 0 -109 -15q-17 -24 -29.5 -65.5
t-14.5 -81.5q25 -3 58 -4t74 -1q34 0 67.5 3t49.5 8z" />
    <glyph glyph-name="Scaron" unicode="&#x160;" horiz-adv-x="524" 
d="M245 344q-51 6 -86.5 17t-57 29.5t-31.5 48t-10 73.5v16t1 17q2 38 9 75t19 71q46 13 91 16t92 3q51 0 96 -3.5t85 -11.5q-2 -16 -5 -30.5t-11 -28.5q-32 8 -71.5 11t-81.5 3q-39 0 -76.5 -2t-63.5 -10q-8 -21 -11.5 -45t-5.5 -49q-3 -43 5 -68.5t27.5 -40.5t51.5 -22
t78 -13q54 -7 88 -26t53.5 -45.5t26.5 -58.5t7 -64q0 -61 -10 -114.5t-28 -81.5q-49 -13 -96 -16.5t-93 -3.5q-57 0 -104 4.5t-89 14.5q-7 16 -9 33t-4 37q21 -7 46 -12.5t51 -9.5t52 -6t50 -2q41 0 79 4t64 11q11 25 18 64t7 76q0 24 -7.5 47t-25 42t-47 32.5t-73.5 18.5z
M141 917q7 1 13 2t13 1q19 0 29 -6.5t24 -23.5l62 -73l89 100q5 1 10.5 2t18.5 1q11 0 14.5 -8t-8.5 -22l-103 -113h-43z" />
    <glyph glyph-name="scaron" unicode="&#x161;" horiz-adv-x="431" 
d="M204 239q-41 4 -70 12.5t-47 25t-25 42.5t-4 65q2 29 8.5 56t16.5 50q38 14 74.5 17t74.5 3q41 0 77 -3.5t68 -13.5q-1 -28 -16 -56q-25 9 -55.5 13t-62.5 4q-29 0 -58 -2.5t-50 -11.5q-6 -12 -9 -27t-4 -29q-2 -28 3.5 -44t20.5 -25.5t40.5 -14.5t63.5 -9
q43 -5 70 -19.5t42.5 -34t21 -42t5.5 -44.5q0 -44 -9 -82t-24 -57q-37 -12 -77 -15t-75 -3q-47 0 -84.5 5t-72.5 16q-4 14 -7 29.5t-3 29.5q34 -11 75 -18t80 -7q32 0 62.5 3t52.5 11q8 16 12.5 39t4.5 46q0 16 -6 30.5t-20 27t-37 21t-57 12.5zM83 719q7 1 13 2t13 1
q19 0 29 -6.5t24 -23.5l62 -73l89 100q5 1 10.5 2t18.5 1q11 0 14.5 -8t-8.5 -22l-103 -113h-43z" />
    <glyph glyph-name="Ydieresis" unicode="&#x178;" horiz-adv-x="538" 
d="M233 0v281l-215 419q11 5 38 5q13 0 25 -4.5t19 -18.5l167 -329l180 346q8 4 18.5 5t20.5 1q20 0 25 -9.5t-4 -26.5l-204 -388v-281h-70zM155 871q8 4 16.5 4.5t15.5 0.5q24 0 33.5 -9.5t9.5 -35.5q0 -11 -2 -23t-6 -19q-8 -2 -16 -2.5t-16 -0.5q-24 0 -33.5 9.5
t-9.5 35.5q0 11 2 23t6 17zM314 871q8 4 16.5 4.5t15.5 0.5q24 0 33.5 -9.5t9.5 -35.5q0 -11 -2 -23t-6 -19q-7 -2 -15 -2.5t-16 -0.5q-24 0 -34 9.5t-10 35.5q0 11 2 23t6 17z" />
    <glyph glyph-name="Zcaron" unicode="&#x17d;" horiz-adv-x="499" 
d="M110 58h183q22 0 42 0.5t41 1.5t43.5 3t50.5 5q-5 -48 -16 -68h-407q-11 14 -12.5 31.5t0.5 30.5l343 580h-186q-38 0 -75.5 -1t-74.5 -8q2 20 5.5 38t10.5 29h381q11 -9 13.5 -28.5t0.5 -32.5zM105 917q7 1 13 2t13 1q19 0 29 -6.5t24 -23.5l62 -73l89 100q5 1 10.5 2
t18.5 1q11 0 14.5 -8t-8.5 -22l-103 -113h-43z" />
    <glyph glyph-name="zcaron" unicode="&#x17e;" horiz-adv-x="456" 
d="M115 56h183q34 0 66 1.5t66 9.5q0 -17 -5 -33.5t-14 -33.5h-362q-8 11 -11 28t-1 30l278 386h-127q-33 0 -69 -0.5t-70 -5.5q-6 12 -9 29.5t-3 32.5h347q11 -8 12.5 -25.5t-1.5 -28.5zM85 719q7 1 13 2t13 1q19 0 29 -6.5t24 -23.5l62 -73l89 100q5 1 10.5 2t18.5 1
q11 0 14.5 -8t-8.5 -22l-103 -113h-43z" />
    <glyph glyph-name="florin" unicode="&#x192;" horiz-adv-x="357" 
d="M140 407l-103 1q3 31 15 59h88v2q0 94 15.5 166.5t43.5 107.5q38 7 79 7q43 0 84 -6q-2 -14 -6.5 -30t-13.5 -30q-13 3 -24 4t-25 1q-12 0 -25 -1t-23 -4q-16 -29 -26 -86t-10 -129v-2h109q-2 -14 -5.5 -30t-9.5 -30h-94v-277q0 -94 -16 -166.5t-44 -107.5
q-20 -4 -38.5 -5.5t-39.5 -1.5q-45 0 -85 6q2 14 7 30t13 30q14 -3 25 -4.5t25 -1.5q12 0 25 1.5t23 4.5q16 29 26 86t10 129v277z" />
    <glyph glyph-name="circumflex" unicode="&#x2c6;" horiz-adv-x="861" 
d="M347 529h-61l-72 93l-82 -93h-64l118 136q4 5 13 7.5t20 2.5t16 -4t12 -13z" />
    <glyph glyph-name="tilde" unicode="&#x2dc;" horiz-adv-x="793" 
d="M312 722q-19 -8 -40.5 -2.5t-43.5 15.5t-43 19.5t-38 9.5q-5 -6 -10 -21t-6 -23l-38 8q5 20 11 39t17 37q17 7 38.5 1.5t43.5 -15.5t43.5 -19.5t38.5 -9.5q5 8 10.5 24t5.5 26l38 -7q-3 -22 -10 -42.5t-17 -39.5z" />
    <glyph glyph-name="endash" unicode="&#x2013;" horiz-adv-x="579" 
d="M490 324q18 0 25 -6.5t7 -26.5q0 -10 -2.5 -16.5t-7.5 -12.5h-430q-14 0 -19.5 6.5t-5.5 23.5t10 32h423z" />
    <glyph glyph-name="emdash" unicode="&#x2014;" horiz-adv-x="774" 
d="M685 324q18 0 25.5 -6.5t7.5 -26.5q0 -10 -3 -16.5t-8 -12.5h-625q-14 0 -19.5 6.5t-5.5 23.5t10 32h618z" />
    <glyph glyph-name="quoteleft" unicode="&#x2018;" horiz-adv-x="189" 
d="M117 535q-8 -3 -16 -3.5t-15 -0.5q-19 0 -27 7t-8 27q0 29 3 49t9.5 35t16.5 27t24 25q11 3 21 3t20 -2q-17 -29 -19 -54.5t-2 -59.5q0 -14 -1.5 -29.5t-5.5 -23.5z" />
    <glyph glyph-name="quoteright" unicode="&#x2019;" horiz-adv-x="190" 
d="M75 701q8 3 16 3.5t15 0.5q19 0 27 -7t8 -27q0 -29 -3 -49t-9.5 -35t-16.5 -27t-24 -25q-11 -3 -21 -3t-20 2q9 15 13 28t6 26.5t2 28v31.5q0 14 1.5 29.5t5.5 23.5z" />
    <glyph glyph-name="quotesinglbase" unicode="&#x201a;" horiz-adv-x="225" 
d="M89 60q5 4 10 4.5t10 0.5q23 0 32.5 -7t9.5 -25v-5q-1 -17 -3 -32.5t-8 -32.5q-8 -20 -19 -40.5t-23 -33.5l-33 2q6 7 14.5 20t14.5 27.5t7.5 29t-5.5 25.5q-18 7 -18 40q0 8 3 15t8 12z" />
    <glyph glyph-name="quotedblleft" unicode="&#x201c;" horiz-adv-x="309" 
d="M117 535q-8 -3 -16 -3.5t-15 -0.5q-19 0 -27 7t-8 27q0 29 3 49t9.5 35t16.5 27t24 25q11 3 21 3t20 -2q-17 -29 -19 -54.5t-2 -59.5q0 -14 -1.5 -29.5t-5.5 -23.5zM237 535q-8 -3 -16 -3.5t-15 -0.5q-19 0 -27 7t-8 27q0 29 3 49t9.5 35t16.5 27t24 25q11 3 21 3t20 -2
q-17 -29 -19 -54.5t-2 -59.5q0 -14 -1.5 -29.5t-5.5 -23.5z" />
    <glyph glyph-name="quotedblright" unicode="&#x201d;" horiz-adv-x="310" 
d="M75 701q8 3 16 3.5t15 0.5q19 0 27 -7t8 -27q0 -29 -3 -49t-9.5 -35t-16.5 -27t-24 -25q-11 -3 -21 -3t-20 2q9 15 13 28t6 26.5t2 28v31.5q0 14 1.5 29.5t5.5 23.5zM194 701q8 3 16 3.5t15 0.5q19 0 27 -7t8 -27q0 -29 -3 -49t-9.5 -35t-16.5 -27t-24 -25q-11 -3 -21 -3
t-20 2q9 15 13 28t6 26.5t2 28v31.5q0 14 1.5 29.5t5.5 23.5z" />
    <glyph glyph-name="quotedblbase" unicode="&#x201e;" horiz-adv-x="323" 
d="M78 64q8 3 16 3.5t15 0.5q19 0 27 -7t8 -27q0 -29 -3 -49t-9.5 -35t-16.5 -27t-24 -25q-11 -3 -21 -3t-20 2q9 15 13 28t6 26.5t2 28v31.5q0 14 1.5 29.5t5.5 23.5zM191 64q8 3 16 3.5t15 0.5q19 0 27 -7t8 -27q0 -29 -3 -49t-9.5 -35t-16.5 -27t-24 -25q-11 -3 -21 -3
t-20 2q9 15 13 28t6 26.5t2 28v31.5q0 14 1.5 29.5t5.5 23.5z" />
    <glyph glyph-name="dagger" unicode="&#x2020;" horiz-adv-x="415" 
d="M157 404h-106q-14 0 -19.5 6t-5.5 23q0 19 11 32h120v280q17 5 33 5q20 0 27.5 -9.5t7.5 -33.5v-242h131q18 0 25 -6t7 -26q0 -11 -2.5 -17t-7.5 -12h-153v-604h-68v604z" />
    <glyph glyph-name="daggerdbl" unicode="&#x2021;" horiz-adv-x="443" 
d="M170 104h-105q-14 0 -20 6t-6 23q0 19 11 32h120v239h-105q-14 0 -20 6t-6 23q0 19 11 32h120v280q17 5 33 5q20 0 28 -9.5t8 -33.5v-242h130q18 0 25 -6t7 -26q0 -11 -2.5 -17t-7.5 -12h-152v-239h130q18 0 25 -6t7 -26q0 -11 -2.5 -17t-7.5 -12h-152v-304h-69v304z" />
    <glyph glyph-name="bullet" unicode="&#x2022;" horiz-adv-x="259" 
d="M128 284q-23 0 -34.5 9.5t-11.5 35.5q0 15 3 26.5t7 16.5q10 2 19.5 2.5t18.5 0.5q24 0 35 -10t11 -36q0 -32 -11 -41q-9 -3 -18.5 -3.5t-18.5 -0.5z" />
    <glyph glyph-name="ellipsis" unicode="&#x2026;" horiz-adv-x="1028" 
d="M68 76q8 4 16.5 4.5t15.5 0.5q24 0 33.5 -9.5t9.5 -35.5q0 -11 -2 -23t-6 -19q-8 -2 -15.5 -2.5t-15.5 -0.5q-25 0 -34.5 9.5t-9.5 35.5q0 11 2 23t6 17zM480 76q8 4 16.5 4.5t15.5 0.5q24 0 33.5 -9.5t9.5 -35.5q0 -11 -2 -23t-6 -19q-8 -2 -15.5 -2.5t-15.5 -0.5
q-25 0 -34.5 9.5t-9.5 35.5q0 11 2 23t6 17zM892 76q8 4 16.5 4.5t15.5 0.5q24 0 33.5 -9.5t9.5 -35.5q0 -11 -2 -23t-6 -19q-8 -2 -15.5 -2.5t-15.5 -0.5q-25 0 -34.5 9.5t-9.5 35.5q0 11 2 23t6 17z" />
    <glyph glyph-name="perthousand" unicode="&#x2030;" horiz-adv-x="1345" 
d="M734 0q-77 0 -115 41.5t-39 144.5q1 59 14 104t36 67q27 10 55 12.5t56 2.5q38 0 66.5 -10t48 -32t29 -57.5t10.5 -86.5q-2 -59 -14.5 -104t-35.5 -67q-27 -10 -55 -12.5t-56 -2.5zM1146 0q-77 0 -115 41.5t-39 144.5q1 59 14 104t36 67q27 10 55 12.5t56 2.5
q38 0 66.5 -10t48 -32t29 -57.5t10.5 -86.5q-2 -59 -14.5 -104t-35.5 -67q-27 -10 -55 -12.5t-56 -2.5zM188 333q-38 0 -66.5 10t-47.5 32t-29 57.5t-10 86.5q1 59 13.5 104t35.5 67q27 10 55 12.5t56 2.5q77 0 115 -41.5t39 -144.5q-1 -59 -14 -104t-36 -67
q-27 -10 -55 -12.5t-56 -2.5zM669 310q-15 -18 -22.5 -53.5t-7.5 -70.5q0 -72 22.5 -103.5t79.5 -31.5q15 0 33.5 1.5t32.5 9.5q14 18 21.5 53.5t7.5 70.5q0 72 -22.5 103.5t-79.5 31.5q-15 0 -33.5 -1.5t-31.5 -9.5zM123 643q-15 -18 -22.5 -53.5t-7.5 -70.5
q0 -72 22.5 -103.5t79.5 -31.5q15 0 33.5 1.5t32.5 9.5q14 18 21.5 53.5t7.5 70.5q0 72 -22.5 103.5t-79.5 31.5q-15 0 -33.5 -1.5t-31.5 -9.5zM1081 310q-15 -18 -22.5 -53.5t-7.5 -70.5q0 -72 22.5 -103.5t79.5 -31.5q15 0 33.5 1.5t32.5 9.5q14 18 21.5 53.5t7.5 70.5
q0 72 -22.5 103.5t-79.5 31.5q-15 0 -33.5 -1.5t-31.5 -9.5zM656 699q9 3 17.5 4.5t19.5 1.5q17 0 19.5 -11.5t-8.5 -28.5l-433 -665h-69z" />
    <glyph glyph-name="guilsinglleft" unicode="&#x2039;" horiz-adv-x="288" 
d="M36 318l133 248q9 2 18 2.5t19 1.5q18 1 25 -6.5t-5 -29.5l-117 -216l134 -248h-73z" />
    <glyph glyph-name="guilsinglright" unicode="&#x203a;" horiz-adv-x="290" 
d="M121 70h-72l132 246l-134 250q7 2 15.5 3t15.5 1q27 0 36 -7.5t17 -21.5l122 -224z" />
    <glyph glyph-name="Euro" unicode="&#x20ac;" horiz-adv-x="668" 
d="M122 291v25q0 49 6 94h-61q-14 0 -20 6t-6 23q0 19 11 32h88q20 79 57.5 137.5t88.5 90.5q38 5 78 8t87 3q45 0 83 -1.5t76 -6.5q0 -13 -5 -30t-13 -31q-35 5 -66.5 6.5t-77.5 1.5q-35 0 -63 -1.5t-62 -6.5q-32 -22 -60 -66t-46 -104h154q18 0 25 -6t7 -26
q0 -11 -2.5 -17t-7.5 -12h-190q-4 -22 -5.5 -45t-1.5 -47v-27h175q18 0 25 -6t7 -26q0 -11 -2.5 -17t-7.5 -12h-191q16 -98 73 -139t161 -41q46 0 89.5 8t85.5 31q-2 -34 -13 -68q-42 -19 -85.5 -25t-85.5 -6q-140 0 -211.5 57.5t-88.5 182.5h-60q-14 0 -20 6t-6 23
q0 19 11 32h70z" />
    <glyph glyph-name="trademark" unicode="&#x2122;" horiz-adv-x="719" 
d="M383 702l14 3h8q7 -1 12 -3.5t10 -12.5l91 -166l92 179q10 3 17 3q11 0 17.5 -5.5t6.5 -19.5v-256h-41v194l-73 -142h-37l-76 138v-190h-41v278zM320 704q0 -11 -1.5 -22t-4.5 -21q-19 2 -30 3t-20.5 1.5t-21 0.5h-32.5h-1v-242h-45v242h-32.5t-21.5 -0.5t-20.5 -1.5
t-29.5 -3q-3 10 -4.5 21t-1.5 22h266z" />
    </font>
</defs>
</svg>
